如资源无法下载,请在「交流」反馈!

[2022][欧美][喜剧][BD-4K]博物馆惊魂夜:卡门拉回归 Night.at.the.Museum.Kahmunrah.Rises.Again.2022.2160p.DSNP.WEB-DL.DD


帖子完整标题:博物馆惊魂夜:卡门拉回归 Night.at.the.Museum.Kahmunrah.Rises.Again.2022.2160p.DSNP.WEB-DL.DDP5.1.Atmos.DV.MKV.x265-SMURF 9.36GB



◎标  题 博物馆惊魂夜:卡门拉回归
◎译  名 博物馆奇妙夜:法老归来 / 博物馆惊魂夜:法老再现(台) / 翻生侏罗馆:法老回归(港) / 博物馆奇妙夜动画版
◎片  名 Night At The Museum:Kahumunrah Rises Again
◎年  代 2022
◎产  地 美国
◎类  别 喜剧 / 动画 / 惊悚 / 恐怖 / 奇幻 / 冒险
◎语  言 英语
◎上映日期 2022-12-09(美国网络)
◎IMDb链接 https://www.imdb.com/title/tt13623880/
◎豆瓣链接 https://movie.douban.com/subject/35284563/
◎编  剧 米兰·崔克 Milan Trenc
◎演  员 约书亚·巴塞特 Joshua Bassett
      托马斯·列农 Thomas Lennon
      约瑟夫·卡马尔 Joseph Kamal
      Akmal Saleh Akmal Saleh
      斯蒂夫·扎恩 Steve Zahn
      杰克·怀特霍尔 Jack Whitehall
      Kieran Sequoia
      爱丽丝·伊萨 Alice Isaaz
      詹米·德米特鲁 Jamie Demetriou
      扎克瑞·莱维 Zachary Levi
      吉莉安·雅各布斯 Gillian Jacobs
      莉迪亚·波尔图 Lidia Porto
      丹增·诺盖·特雷纳 Tenzing Norgay Trainor
      杨伯文 Bowen Yang
      克里斯·帕内尔 Chris Parnell
      齐科·扎基 Zeeko Zaki
      迪·布拉雷·贝克尔 Dee Bradley Baker

◎简  介
  聚焦真人电影男主Larry Daley的儿子Nick Daley,他不情不愿地也成为了一名博物馆管理员,而《博物馆奇妙夜2》里的卡门拉法老又回来了,想要征服世界。

Video
ID : 1
Format : HEVC
Format/Info : High Efficiency Video Coding
Format profile : Main [email protected]@High
HDR format : Dolby Vision, Version 1.0, dvhe.05.06, BL+RPU
Codec ID : V_MPEGH/ISO/HEVC
Duration : 1 h 17 min
Bit rate : 16.5 Mb/s
Width : 3 840 pixels
Height : 2 160 pixels
Display aspect ratio : 16:9
Frame rate mode : Constant
Frame rate : 24.000 FPS
Color space : YUV
Chroma subsampling : 4:2:0
Bit depth : 10 bits
Bits/(Pixel*Frame) : 0.083
Stream size : 8.94 GiB (96%)
Language : English
Default : Yes
Forced : No
Color range : Full

Audio
ID : 2
Format : E-AC-3 JOC
Format/Info : Enhanced AC-3 with Joint Object Coding
Commercial name : Dolby Digital Plus with Dolby Atmos
Codec ID : A_EAC3
Duration : 1 h 17 min
Bit rate mode : Constant
Bit rate : 768 kb/s
Channel(s) : 6 channels
Channel layout : L R C LFE Ls Rs
Sampling rate : 48.0 kHz
Frame rate : 31.250 FPS (1536 SPF)
Compression mode : Lossy
Stream size : 427 MiB (4%)
Language : English
Service kind : Complete Main
Default : Yes
Forced : No
Complexity index : 16
Number of dynamic objects : 15
Bed channel count : 1 channel
Bed channel configuration : LFE

Text #1
ID : 3
Format : UTF-8
Codec ID : S_TEXT/UTF8
Codec ID/Info : UTF-8 Plain Text
Duration : 1 h 12 min
Bit rate : 77 b/s
Frame rate : 0.284 FPS
Count of elements : 1239
Stream size : 41.4 KiB (0%)
Language : English
Default : No
Forced : No

Text #2
ID : 4
Format : UTF-8
Codec ID : S_TEXT/UTF8
Codec ID/Info : UTF-8 Plain Text
Duration : 1 h 12 min
Bit rate : 77 b/s
Frame rate : 0.284 FPS
Count of elements : 1239
Stream size : 41.4 KiB (0%)
Title : SDH
Language : English
Default : No
Forced : No

Text #3
ID : 5
Format : UTF-8
Codec ID : S_TEXT/UTF8
Codec ID/Info : UTF-8 Plain Text
Duration : 1 h 12 min
Bit rate : 63 b/s
Frame rate : 0.245 FPS
Count of elements : 1074
Stream size : 33.8 KiB (0%)
Language : Czech
Default : No
Forced : No

Text #4
ID : 6
Format : UTF-8
Codec ID : S_TEXT/UTF8
Codec ID/Info : UTF-8 Plain Text
Duration : 1 h 12 min
Bit rate : 61 b/s
Frame rate : 0.260 FPS
Count of elements : 1137
Stream size : 32.9 KiB (0%)
Language : Danish
Default : No
Forced : No

Text #5
ID : 7
Format : UTF-8
Codec ID : S_TEXT/UTF8
Codec ID/Info : UTF-8 Plain Text
Duration : 1 h 12 min
Bit rate : 66 b/s
Frame rate : 0.261 FPS
Count of elements : 1140
Stream size : 35.7 KiB (0%)
Language : German
Default : No
Forced : No

Text #6
ID : 8
Format : UTF-8
Codec ID : S_TEXT/UTF8
Codec ID/Info : UTF-8 Plain Text
Duration : 1 h 12 min
Bit rate : 93 b/s
Frame rate : 0.282 FPS
Count of elements : 1234
Stream size : 50.1 KiB (0%)
Language : Greek
Default : No
Forced : No

Text #7
ID : 9
Format : UTF-8
Codec ID : S_TEXT/UTF8
Codec ID/Info : UTF-8 Plain Text
Duration : 1 h 12 min
Bit rate : 62 b/s
Frame rate : 0.260 FPS
Count of elements : 1136
Stream size : 33.2 KiB (0%)
Title : Latin American
Language : Spanish
Default : No
Forced : No

Text #8
ID : 10
Format : UTF-8
Codec ID : S_TEXT/UTF8
Codec ID/Info : UTF-8 Plain Text
Duration : 1 h 12 min
Bit rate : 65 b/s
Frame rate : 0.255 FPS
Count of elements : 1115
Stream size : 35.0 KiB (0%)
Language : Spanish
Default : No
Forced : No

Text #9
ID : 11
Format : UTF-8
Codec ID : S_TEXT/UTF8
Codec ID/Info : UTF-8 Plain Text
Duration : 1 h 12 min
Bit rate : 72 b/s
Frame rate : 0.274 FPS
Count of elements : 1197
Stream size : 38.6 KiB (0%)
Language : Finnish
Default : No
Forced : No

Text #10
ID : 12
Format : UTF-8
Codec ID : S_TEXT/UTF8
Codec ID/Info : UTF-8 Plain Text
Duration : 1 h 12 min
Bit rate : 66 b/s
Frame rate : 0.262 FPS
Count of elements : 1144
Stream size : 35.7 KiB (0%)
Language : French
Default : No
Forced : No

Text #11
ID : 13
Format : UTF-8
Codec ID : S_TEXT/UTF8
Codec ID/Info : UTF-8 Plain Text
Duration : 1 h 12 min
Bit rate : 67 b/s
Frame rate : 0.253 FPS
Count of elements : 1108
Stream size : 36.3 KiB (0%)
Language : Hungarian
Default : No
Forced : No

Text #12
ID : 14
Format : UTF-8
Codec ID : S_TEXT/UTF8
Codec ID/Info : UTF-8 Plain Text
Duration : 1 h 12 min
Bit rate : 61 b/s
Frame rate : 0.238 FPS
Count of elements : 1040
Stream size : 32.9 KiB (0%)
Language : Italian
Default : No
Forced : No

Text #13
ID : 15
Format : UTF-8
Codec ID : S_TEXT/UTF8
Codec ID/Info : UTF-8 Plain Text
Duration : 1 h 12 min
Bit rate : 63 b/s
Frame rate : 0.264 FPS
Count of elements : 1156
Stream size : 34.1 KiB (0%)
Language : Japanese
Default : No
Forced : No

Text #14
ID : 16
Format : UTF-8
Codec ID : S_TEXT/UTF8
Codec ID/Info : UTF-8 Plain Text
Duration : 1 h 12 min
Bit rate : 84 b/s
Frame rate : 0.282 FPS
Count of elements : 1234
Stream size : 45.0 KiB (0%)
Language : Korean
Default : No
Forced : No

Text #15
ID : 17
Format : UTF-8
Codec ID : S_TEXT/UTF8
Codec ID/Info : UTF-8 Plain Text
Duration : 1 h 12 min
Bit rate : 58 b/s
Frame rate : 0.203 FPS
Count of elements : 886
Stream size : 31.1 KiB (0%)
Language : Dutch
Default : No
Forced : No

Text #16
ID : 18
Format : UTF-8
Codec ID : S_TEXT/UTF8
Codec ID/Info : UTF-8 Plain Text
Duration : 1 h 12 min
Bit rate : 60 b/s
Frame rate : 0.194 FPS
Count of elements : 847
Stream size : 32.3 KiB (0%)
Language : Norwegian
Default : No
Forced : No

Text #17
ID : 19
Format : UTF-8
Codec ID : S_TEXT/UTF8
Codec ID/Info : UTF-8 Plain Text
Duration : 1 h 12 min
Bit rate : 62 b/s
Frame rate : 0.257 FPS
Count of elements : 1122
Stream size : 33.4 KiB (0%)
Language : Polish
Default : No
Forced : No

Text #18
ID : 20
Format : UTF-8
Codec ID : S_TEXT/UTF8
Codec ID/Info : UTF-8 Plain Text
Duration : 1 h 12 min
Bit rate : 65 b/s
Frame rate : 0.264 FPS
Count of elements : 1158
Stream size : 35.0 KiB (0%)
Title : Brazilian
Language : Portuguese
Default : No
Forced : No

Text #19
ID : 21
Format : UTF-8
Codec ID : S_TEXT/UTF8
Codec ID/Info : UTF-8 Plain Text
Duration : 1 h 12 min
Bit rate : 70 b/s
Frame rate : 0.280 FPS
Count of elements : 1228
Stream size : 37.8 KiB (0%)
Language : Portuguese
Default : No
Forced : No

Text #20
ID : 22
Format : UTF-8
Codec ID : S_TEXT/UTF8
Codec ID/Info : UTF-8 Plain Text
Duration : 1 h 12 min
Bit rate : 63 b/s
Frame rate : 0.203 FPS
Count of elements : 889
Stream size : 34.1 KiB (0%)
Language : Romanian
Default : No
Forced : No

Text #21
ID : 23
Format : UTF-8
Codec ID : S_TEXT/UTF8
Codec ID/Info : UTF-8 Plain Text
Duration : 1 h 12 min
Bit rate : 64 b/s
Frame rate : 0.283 FPS
Count of elements : 1238
Stream size : 34.3 KiB (0%)
Language : Slovak
Default : No
Forced : No

Text #22
ID : 24
Format : UTF-8
Codec ID : S_TEXT/UTF8
Codec ID/Info : UTF-8 Plain Text
Duration : 1 h 12 min
Bit rate : 70 b/s
Frame rate : 0.282 FPS
Count of elements : 1235
Stream size : 37.7 KiB (0%)
Language : Swedish
Default : No
Forced : No

Text #23
ID : 25
Format : UTF-8
Codec ID : S_TEXT/UTF8
Codec ID/Info : UTF-8 Plain Text
Duration : 1 h 12 min
Bit rate : 72 b/s
Frame rate : 0.284 FPS
Count of elements : 1242
Stream size : 38.5 KiB (0%)
Language : Turkish
Default : No
Forced : No

Text #24
ID : 26
Format : UTF-8
Codec ID : S_TEXT/UTF8
Codec ID/Info : UTF-8 Plain Text
Duration : 1 h 12 min
Bit rate : 66 b/s
Frame rate : 0.282 FPS
Count of elements : 1237
Stream size : 35.8 KiB (0%)
Title : Hong Kong
Language : Chinese
Default : No
Forced : No

Text #25
ID : 27
Format : UTF-8
Codec ID : S_TEXT/UTF8
Codec ID/Info : UTF-8 Plain Text
Duration : 1 h 12 min
Bit rate : 70 b/s
Frame rate : 0.284 FPS
Count of elements : 1241
Stream size : 37.4 KiB (0%)
Title : Simplified
Language : Chinese
Default : No
Forced : No

Text #26
ID : 28
Format : UTF-8
Codec ID : S_TEXT/UTF8
Codec ID/Info : UTF-8 Plain Text
Duration : 1 h 12 min
Bit rate : 66 b/s
Frame rate : 0.283 FPS
Count of elements : 1238
Stream size : 35.3 KiB (0%)
Title : Traditional
Language : Chinese
Default : No
Forced : No

Menu
00:08:24.292 : en:Scene 1
00:18:03.000 : en:Scene 2
00:34:05.875 : en:Scene 3
00:42:02.417 : en:Scene 4
00:50:12.917 : en:Scene 5
00:57:41.083 : en:Scene 6
01:08:58.625 : en:Scene 7
01:13:44.083 : en:Credits






Night.at.the.Museum.Kahmunrah.Rises.Again.2022.2160p.DSNP.WEB-DL.DDP5.1.Atmos.DV.MKV.x265-SMURF.torrent
还没有人收藏过本帖~
回帖请注意!暂设定扣除1金币!签到可得!
最新回复 (0)
返回
发新帖
即将对游客闭站,请注册账号备用!
影音屋为您提供最新的720P、1080P、2K、4K、原盘高清电影下载,内部交流社区,欢迎体验。影音屋,更多好电影待您发现!
加入影音电报群 加入影音企鹅群 淘宝天猫漏洞单