如资源无法下载,请在「交流」反馈!

[2022][欧美][喜剧][BD-4K]博物馆惊魂夜:卡门拉回归 Night.at.the.Museum.Kahmunrah.Rises.Again.2022.2160p.DSNP.WEB-DL.DD


帖子完整标题:博物馆惊魂夜:卡门拉回归 Night.at.the.Museum.Kahmunrah.Rises.Again.2022.2160p.DSNP.WEB-DL.DDP5.1.Atmos.DV.MP4.x265-DVSUX 9.36GB



◎标  题 博物馆惊魂夜:卡门拉回归
◎译  名 博物馆奇妙夜:法老归来 / 博物馆惊魂夜:法老再现(台) / 翻生侏罗馆:法老回归(港) / 博物馆奇妙夜动画版
◎片  名 Night At The Museum:Kahumunrah Rises Again
◎年  代 2022
◎产  地 美国
◎类  别 喜剧 / 动画 / 惊悚 / 恐怖 / 奇幻 / 冒险
◎语  言 英语
◎上映日期 2022-12-09(美国网络)
◎IMDb链接 https://www.imdb.com/title/tt13623880/
◎豆瓣链接 https://movie.douban.com/subject/35284563/
◎编  剧 米兰·崔克 Milan Trenc
◎演  员 约书亚·巴塞特 Joshua Bassett
      托马斯·列农 Thomas Lennon
      约瑟夫·卡马尔 Joseph Kamal
      Akmal Saleh Akmal Saleh
      斯蒂夫·扎恩 Steve Zahn
      杰克·怀特霍尔 Jack Whitehall
      Kieran Sequoia
      爱丽丝·伊萨 Alice Isaaz
      詹米·德米特鲁 Jamie Demetriou
      扎克瑞·莱维 Zachary Levi
      吉莉安·雅各布斯 Gillian Jacobs
      莉迪亚·波尔图 Lidia Porto
      丹增·诺盖·特雷纳 Tenzing Norgay Trainor
      杨伯文 Bowen Yang
      克里斯·帕内尔 Chris Parnell
      齐科·扎基 Zeeko Zaki
      迪·布拉雷·贝克尔 Dee Bradley Baker

◎简  介
  聚焦真人电影男主Larry Daley的儿子Nick Daley,他不情不愿地也成为了一名博物馆管理员,而《博物馆奇妙夜2》里的卡门拉法老又回来了,想要征服世界。

Video
ID : 1
Format : HEVC
Format/Info : High Efficiency Video Coding
Format profile : Main [email protected]@High
HDR format : Dolby Vision, Version 1.0, dvhe.05.06, BL+RPU
Codec ID : dvhe
Codec ID/Info : High Efficiency Video Coding with Dolby Vision
Duration : 1 h 17 min
Bit rate : 16.5 Mb/s
Width : 3 840 pixels
Height : 2 160 pixels
Display aspect ratio : 16:9
Frame rate mode : Constant
Frame rate : 24.000 FPS
Color space : YUV
Chroma subsampling : 4:2:0
Bit depth : 10 bits
Bits/(Pixel*Frame) : 0.083
Stream size : 8.94 GiB (96%)
Default : Yes
Alternate group : 1
Encoded date : UTC 2022-12-09 09:02:09
Tagged date : UTC 2022-12-09 09:03:44
Color range : Full
Codec configuration box : hvcC+dvcC

Audio
ID : 2
Format : E-AC-3 JOC
Format/Info : Enhanced AC-3 with Joint Object Coding
Commercial name : Dolby Digital Plus with Dolby Atmos
Codec ID : ec-3
Duration : 1 h 17 min
Bit rate mode : Constant
Bit rate : 768 kb/s
Maximum bit rate : 811 kb/s
Channel(s) : 6 channels
Channel layout : L R C LFE Ls Rs
Sampling rate : 48.0 kHz
Frame rate : 31.250 FPS (1536 SPF)
Compression mode : Lossy
Stream size : 427 MiB (4%)
Title : English
Language : English
Service kind : Complete Main
Default : Yes
Alternate group : 1
Tagged date : UTC 2022-12-09 09:03:44
Complexity index : Not present / 16
Number of dynamic objects : 15
Bed channel count : 1 channel
Bed channel configuration : LFE

Text #1
ID : 3
Format : Timed Text
Codec ID : tx3g
Duration : 1 h 13 min
Bit rate mode : Variable
Bit rate : 87 b/s
Frame rate : 0.562 FPS
Stream size : 46.7 KiB (0%)
Title : English
Language : English
Forced : No
Encoded date : UTC 2022-12-09 09:03:42
Tagged date : UTC 2022-12-09 09:03:44

Text #2
ID : 4
Format : Timed Text
Codec ID : tx3g
Duration : 1 h 13 min
Bit rate mode : Variable
Bit rate : 87 b/s
Frame rate : 0.562 FPS
Stream size : 46.7 KiB (0%)
Title : English
Language : English
Forced : No
Encoded date : UTC 2022-12-09 09:03:42
Tagged date : UTC 2022-12-09 09:03:44

Text #3
ID : 5
Format : Timed Text
Codec ID : tx3g
Duration : 1 h 13 min
Bit rate mode : Variable
Bit rate : 75 b/s
Frame rate : 0.560 FPS
Stream size : 40.5 KiB (0%)
Title : Chinese-Cantonese
Language : Chinese
Forced : No
Encoded date : UTC 2022-12-09 09:03:42
Tagged date : UTC 2022-12-09 09:03:44

Text #4
ID : 6
Format : Timed Text
Codec ID : tx3g
Duration : 1 h 13 min
Bit rate mode : Variable
Bit rate : 78 b/s
Frame rate : 0.561 FPS
Stream size : 42.3 KiB (0%)
Title : Chinese-Simplified
Language : Chinese
Forced : No
Encoded date : UTC 2022-12-09 09:03:42
Tagged date : UTC 2022-12-09 09:03:44

Text #5
ID : 7
Format : Timed Text
Codec ID : tx3g
Duration : 1 h 13 min
Bit rate mode : Variable
Bit rate : 74 b/s
Frame rate : 0.560 FPS
Stream size : 40.1 KiB (0%)
Title : Chinese-Traditional
Language : Chinese
Forced : No
Encoded date : UTC 2022-12-09 09:03:42
Tagged date : UTC 2022-12-09 09:03:44

Text #6
ID : 8
Format : Timed Text
Codec ID : tx3g
Duration : 1 h 13 min
Bit rate mode : Variable
Bit rate : 71 b/s
Frame rate : 0.486 FPS
Stream size : 38.3 KiB (0%)
Title : Czech
Language : Czech
Forced : No
Encoded date : UTC 2022-12-09 09:03:42
Tagged date : UTC 2022-12-09 09:03:44

Text #7
ID : 9
Format : Timed Text
Codec ID : tx3g
Duration : 1 h 13 min
Bit rate mode : Variable
Bit rate : 70 b/s
Frame rate : 0.514 FPS
Stream size : 37.7 KiB (0%)
Title : Danish
Language : Danish
Forced : No
Encoded date : UTC 2022-12-09 09:03:42
Tagged date : UTC 2022-12-09 09:03:44

Text #8
ID : 10
Format : Timed Text
Codec ID : tx3g
Duration : 1 h 13 min
Bit rate mode : Variable
Bit rate : 64 b/s
Frame rate : 0.401 FPS
Stream size : 34.4 KiB (0%)
Title : Dutch
Language : Dutch
Forced : No
Encoded date : UTC 2022-12-09 09:03:43
Tagged date : UTC 2022-12-09 09:03:44

Text #9
ID : 11
Format : Timed Text
Codec ID : tx3g
Duration : 1 h 13 min
Bit rate mode : Variable
Bit rate : 81 b/s
Frame rate : 0.541 FPS
Stream size : 43.7 KiB (0%)
Title : Finnish
Language : Finnish
Forced : No
Encoded date : UTC 2022-12-09 09:03:43
Tagged date : UTC 2022-12-09 09:03:44

Text #10
ID : 12
Format : Timed Text
Codec ID : tx3g
Duration : 1 h 13 min
Bit rate mode : Variable
Bit rate : 75 b/s
Frame rate : 0.517 FPS
Stream size : 40.6 KiB (0%)
Title : French
Language : French
Forced : No
Encoded date : UTC 2022-12-09 09:03:43
Tagged date : UTC 2022-12-09 09:03:44

Text #11
ID : 13
Format : Timed Text
Codec ID : tx3g
Duration : 1 h 13 min
Bit rate mode : Variable
Bit rate : 75 b/s
Frame rate : 0.516 FPS
Stream size : 40.5 KiB (0%)
Title : German
Language : German
Forced : No
Encoded date : UTC 2022-12-09 09:03:43
Tagged date : UTC 2022-12-09 09:03:44

Text #12
ID : 14
Format : Timed Text
Codec ID : tx3g
Duration : 1 h 13 min
Bit rate mode : Variable
Bit rate : 103 b/s
Frame rate : 0.558 FPS
Stream size : 55.4 KiB (0%)
Title : Greek
Language : Greek
Forced : No
Encoded date : UTC 2022-12-09 09:03:43
Tagged date : UTC 2022-12-09 09:03:44

Text #13
ID : 15
Format : Timed Text
Codec ID : tx3g
Duration : 1 h 13 min
Bit rate mode : Variable
Bit rate : 76 b/s
Frame rate : 0.501 FPS
Stream size : 41.0 KiB (0%)
Title : Hungarian
Language : Hungarian
Forced : No
Encoded date : UTC 2022-12-09 09:03:43
Tagged date : UTC 2022-12-09 09:03:44

Text #14
ID : 16
Format : Timed Text
Codec ID : tx3g
Duration : 1 h 13 min
Bit rate mode : Variable
Bit rate : 69 b/s
Frame rate : 0.470 FPS
Stream size : 37.3 KiB (0%)
Title : Italian
Language : Italian
Forced : No
Encoded date : UTC 2022-12-09 09:03:43
Tagged date : UTC 2022-12-09 09:03:44

Text #15
ID : 17
Format : Timed Text
Codec ID : tx3g
Duration : 1 h 13 min
Bit rate mode : Variable
Bit rate : 71 b/s
Frame rate : 0.520 FPS
Stream size : 38.2 KiB (0%)
Title : Japanese
Language : Japanese
Forced : No
Encoded date : UTC 2022-12-09 09:03:43
Tagged date : UTC 2022-12-09 09:03:44

Text #16
ID : 18
Format : Timed Text
Codec ID : tx3g
Duration : 1 h 13 min
Bit rate mode : Variable
Bit rate : 91 b/s
Frame rate : 0.558 FPS
Stream size : 49.2 KiB (0%)
Title : Korean
Language : Korean
Forced : No
Encoded date : UTC 2022-12-09 09:03:43
Tagged date : UTC 2022-12-09 09:03:44

Text #17
ID : 19
Format : Timed Text
Codec ID : tx3g
Duration : 1 h 13 min
Bit rate mode : Variable
Bit rate : 66 b/s
Frame rate : 0.383 FPS
Stream size : 35.8 KiB (0%)
Title : Norwegian
Language : Norwegian
Forced : No
Encoded date : UTC 2022-12-09 09:03:43
Tagged date : UTC 2022-12-09 09:03:44

Text #18
ID : 20
Format : Timed Text
Codec ID : tx3g
Duration : 1 h 13 min
Bit rate mode : Variable
Bit rate : 71 b/s
Frame rate : 0.507 FPS
Stream size : 38.2 KiB (0%)
Title : Polish
Language : Polish
Forced : No
Encoded date : UTC 2022-12-09 09:03:43
Tagged date : UTC 2022-12-09 09:03:44

Text #19
ID : 21
Format : Timed Text
Codec ID : tx3g
Duration : 1 h 13 min
Bit rate mode : Variable
Bit rate : 80 b/s
Frame rate : 0.555 FPS
Stream size : 43.3 KiB (0%)
Title : Portuguese
Language : Portuguese
Forced : No
Encoded date : UTC 2022-12-09 09:03:43
Tagged date : UTC 2022-12-09 09:03:44

Text #20
ID : 22
Format : Timed Text
Codec ID : tx3g
Duration : 1 h 13 min
Bit rate mode : Variable
Bit rate : 74 b/s
Frame rate : 0.524 FPS
Stream size : 40.0 KiB (0%)
Title : Portuguese-BR
Language : Portuguese
Forced : No
Encoded date : UTC 2022-12-09 09:03:44
Tagged date : UTC 2022-12-09 09:03:44

Text #21
ID : 23
Format : Timed Text
Codec ID : tx3g
Duration : 1 h 13 min
Bit rate mode : Variable
Bit rate : 70 b/s
Frame rate : 0.402 FPS
Stream size : 37.8 KiB (0%)
Title : Romanian
Language : Romanian
Forced : No
Encoded date : UTC 2022-12-09 09:03:44
Tagged date : UTC 2022-12-09 09:03:44

Text #22
ID : 24
Format : Timed Text
Codec ID : tx3g
Duration : 1 h 13 min
Bit rate mode : Variable
Bit rate : 74 b/s
Frame rate : 0.560 FPS
Stream size : 39.7 KiB (0%)
Title : Slovak
Language : Slovak
Forced : No
Encoded date : UTC 2022-12-09 09:03:44
Tagged date : UTC 2022-12-09 09:03:44

Text #23
ID : 25
Format : Timed Text
Codec ID : tx3g
Duration : 1 h 13 min
Bit rate mode : Variable
Bit rate : 71 b/s
Frame rate : 0.514 FPS
Stream size : 38.2 KiB (0%)
Title : Spanish
Language : Spanish
Forced : No
Encoded date : UTC 2022-12-09 09:03:44
Tagged date : UTC 2022-12-09 09:03:44

Text #24
ID : 26
Format : Timed Text
Codec ID : tx3g
Duration : 1 h 13 min
Bit rate mode : Variable
Bit rate : 74 b/s
Frame rate : 0.504 FPS
Stream size : 39.8 KiB (0%)
Title : Spanish-EU
Language : Spanish
Forced : No
Encoded date : UTC 2022-12-09 09:03:44
Tagged date : UTC 2022-12-09 09:03:44

Text #25
ID : 27
Format : Timed Text
Codec ID : tx3g
Duration : 1 h 13 min
Bit rate mode : Variable
Bit rate : 80 b/s
Frame rate : 0.559 FPS
Stream size : 43.0 KiB (0%)
Title : Swedish
Language : Swedish
Forced : No
Encoded date : UTC 2022-12-09 09:03:44
Tagged date : UTC 2022-12-09 09:03:44

Text #26
ID : 28
Format : Timed Text
Codec ID : tx3g
Duration : 1 h 13 min
Bit rate mode : Variable
Bit rate : 81 b/s
Frame rate : 0.562 FPS
Stream size : 43.9 KiB (0%)
Title : Turkish
Language : Turkish
Forced : No
Encoded date : UTC 2022-12-09 09:03:44
Tagged date : UTC 2022-12-09 09:03:44






Night.at.the.Museum.Kahmunrah.Rises.Again.2022.2160p.DSNP.WEB-DL.DDP5.1.Atmos.DV.MP4.x265-DVSUX.torrent
还没有人收藏过本帖~
回帖请注意!暂设定扣除1金币!签到可得!
最新回复 (0)
返回
发新帖
即将对游客闭站,请注册账号备用!
影音屋为您提供最新的720P、1080P、2K、4K、原盘高清电影下载,内部交流社区,欢迎体验。影音屋,更多好电影待您发现!
加入影音电报群 加入影音企鹅群 淘宝天猫漏洞单