如资源无法下载,请在「交流」反馈!

[2022][欧美][恐怖][BD-1080P]血腥圣诞节 Christmas.Bloody.Christmas.2022.1080p.BluRay.x264-WATCHABLE 13.01GB


帖子完整标题:血腥圣诞节 Christmas.Bloody.Christmas.2022.1080p.BluRay.x264-WATCHABLE 13.01GB



◎标  题 血腥圣诞节
◎片  名 Christmas Bloody Christmas
◎年  代 2022
◎产  地 美国
◎类  别 恐怖
◎语  言 英语
◎IMDb评分 7.2/10 (110人评价)
◎IMDb链接 https://www.imdb.com/title/tt22042742/
◎豆瓣链接 https://movie.douban.com/subject/36115210/
◎导  演 乔·比格斯 Joe Begos
◎编  剧 乔·比格斯 Joe Begos
◎演  员 约拿·雷 Jonah Ray

◎简  介
  It's Christmas Eve and Tori just wants to get drunk and party, but when a robotic Santa Clause at a nearby toy store goes haywire and begins a rampant killing spree through her small town, she's forced into a battle for survival.

Video
ID : 1
Format : AVC
Format/Info : Advanced Video Codec
Format profile : [email protected]
Format settings : CABAC / 5 Ref Frames
Format settings, CABAC : Yes
Format settings, Reference frames : 5 frames
Codec ID : V_MPEG4/ISO/AVC
Duration : 1 h 26 min
Bit rate : 17.3 Mb/s
Width : 1 920 pixels
Height : 804 pixels
Display aspect ratio : 2.40:1
Frame rate mode : Constant
Frame rate : 24.000 FPS
Color space : YUV
Chroma subsampling : 4:2:0
Bit depth : 8 bits
Scan type : Progressive
Bits/(Pixel*Frame) : 0.467
Stream size : 10.5 GiB (81%)
Writing library : x264 core 164 r3102 416e3eb
Encoding settings : cabac=1 / ref=5 / deblock=1:-3:-3 / analyse=0x3:0x133 / me=umh / subme=9 / psy=1 / psy_rd=1.00:0.00 / mixed_ref=1 / me_range=16 / chroma_me=1 / trellis=2 / 8x8dct=1 / cqm=0 / deadzone=21,11 / fast_pskip=0 / chroma_qp_offset=-2 / threads=25 / lookahead_threads=2 / sliced_threads=0 / nr=0 / decimate=0 / interlaced=0 / bluray_compat=0 / constrained_intra=0 / bframes=3 / b_pyramid=2 / b_adapt=2 / b_bias=0 / direct=1 / weightb=1 / open_gop=0 / weightp=2 / keyint=250 / keyint_min=24 / scenecut=40 / intra_refresh=0 / rc=crf / mbtree=0 / crf=23.0 / qcomp=0.60 / qpmin=0 / qpmax=69 / qpstep=4 / ip_ratio=1.40 / pb_ratio=1.30 / aq=3:0.70
Default : Yes
Forced : No
Color range : Limited
Color primaries : BT.709
Transfer characteristics : BT.709
Matrix coefficients : BT.709

Audio
ID : 2
Format : DTS XLL
Format/Info : Digital Theater Systems
Commercial name : DTS-HD Master Audio
Codec ID : A_DTS
Duration : 1 h 26 min
Bit rate mode : Variable
Bit rate : 4 160 kb/s
Channel(s) : 6 channels
Channel layout : C L R Ls Rs LFE
Sampling rate : 48.0 kHz
Frame rate : 93.750 FPS (512 SPF)
Bit depth : 24 bits
Compression mode : Lossless
Stream size : 2.52 GiB (19%)
Title : English
Language : English
Default : Yes
Forced : No

Text #1
ID : 3
Format : PGS
Muxing mode : zlib
Codec ID : S_HDMV/PGS
Codec ID/Info : Picture based subtitle format used on BDs/HD-DVDs
Duration : 1 h 21 min
Bit rate : 39.7 kb/s
Frame rate : 0.432 FPS
Count of elements : 2113
Stream size : 23.1 MiB (0%)
Title : German Full PGS
Language : German
Default : No
Forced : No

Text #2
ID : 4
Format : PGS
Muxing mode : zlib
Codec ID : S_HDMV/PGS
Codec ID/Info : Picture based subtitle format used on BDs/HD-DVDs
Duration : 15 s 625 ms
Bit rate : 23.9 kb/s
Frame rate : 0.256 FPS
Count of elements : 4
Stream size : 45.5 KiB (0%)
Title : German Forced PGS
Language : German
Default : No
Forced : No

Menu
00:00:00.000 : en:Chapter 01
00:09:54.292 : en:Chapter 02
00:14:51.042 : en:Chapter 03
00:21:16.042 : en:Chapter 04
00:29:08.542 : en:Chapter 05
00:34:16.417 : en:Chapter 06
00:41:56.500 : en:Chapter 07
00:49:06.833 : en:Chapter 08
00:55:46.625 : en:Chapter 09
01:04:12.125 : en:Chapter 10
01:12:01.500 : en:Chapter 11
01:20:06.750 : en:Chapter 12






Christmas.Bloody.Christmas.2022.1080p.BluRay.x264-WATCHABLE.torrent
还没有人收藏过本帖~
回帖请注意!暂设定扣除1金币!签到可得!
最新回复 (0)
返回
发新帖
即将对游客闭站,请注册账号备用!
影音屋为您提供最新的720P、1080P、2K、4K、原盘高清电影下载,内部交流社区,欢迎体验。影音屋,更多好电影待您发现!
加入影音电报群 加入影音企鹅群 淘宝天猫漏洞单