如资源无法下载,请在「交流」反馈!

[2022][欧美][恐怖][BD-Remux]血腥圣诞节 Christmas.Bloody.Christmas.2022.1080p.BluRay.REMUX.AVC.DTS-HD.MA.5.1-FGT 2


帖子完整标题:血腥圣诞节 Christmas.Bloody.Christmas.2022.1080p.BluRay.REMUX.AVC.DTS-HD.MA.5.1-FGT 21.48GB



◎标  题 血腥圣诞节
◎片  名 Christmas Bloody Christmas
◎年  代 2022
◎产  地 美国
◎类  别 恐怖
◎语  言 英语
◎IMDb评分 7.2/10 (110人评价)
◎IMDb链接 https://www.imdb.com/title/tt22042742/
◎豆瓣链接 https://movie.douban.com/subject/36115210/
◎导  演 乔·比格斯 Joe Begos
◎编  剧 乔·比格斯 Joe Begos
◎演  员 约拿·雷 Jonah Ray

◎简  介
  It's Christmas Eve and Tori just wants to get drunk and party, but when a robotic Santa Clause at a nearby toy store goes haywire and begins a rampant killing spree through her small town, she's forced into a battle for survival.

Video
ID : 1
ID in the original source medium : 4113 (0x1011)
Format : AVC
Format/Info : Advanced Video Codec
Format profile : [email protected]
Format settings : CABAC / 3 Ref Frames
Format settings, CABAC : Yes
Format settings, Reference frames : 3 frames
Codec ID : V_MPEG4/ISO/AVC
Duration : 1 h 26 min
Bit rate mode : Variable
Bit rate : 31.3 Mb/s
Maximum bit rate : 36.0 Mb/s
Width : 1 920 pixels
Height : 1 080 pixels
Display aspect ratio : 16:9
Frame rate mode : Constant
Frame rate : 24.000 FPS
Color space : YUV
Chroma subsampling : 4:2:0
Bit depth : 8 bits
Scan type : Progressive
Bits/(Pixel*Frame) : 0.628
Stream size : 18.9 GiB (88%)
Language : English
Default : No
Forced : No
Color range : Limited
Color primaries : BT.709
Transfer characteristics : BT.709
Matrix coefficients : BT.709
Original source medium : Blu-ray

Audio
ID : 2
ID in the original source medium : 4353 (0x1101)
Format : DTS XLL
Format/Info : Digital Theater Systems
Commercial name : DTS-HD Master Audio
Codec ID : A_DTS
Duration : 1 h 26 min
Bit rate mode : Variable
Bit rate : 4 160 kb/s
Channel(s) : 6 channels
Channel layout : C L R Ls Rs LFE
Sampling rate : 48.0 kHz
Frame rate : 93.750 FPS (512 SPF)
Bit depth : 24 bits
Compression mode : Lossless
Stream size : 2.52 GiB (12%)
Title : DTS-HD MA 5.1
Language : English
Default : Yes
Forced : No
Original source medium : Blu-ray

Text #1
ID : 3
Format : UTF-8
Codec ID : S_TEXT/UTF8
Codec ID/Info : UTF-8 Plain Text
Duration : 1 h 21 min
Bit rate : 74 b/s
Frame rate : 0.272 FPS
Count of elements : 1329
Stream size : 44.1 KiB (0%)
Language : English
Default : Yes
Forced : No

Text #2
ID : 4
Format : UTF-8
Codec ID : S_TEXT/UTF8
Codec ID/Info : UTF-8 Plain Text
Duration : 1 h 22 min
Bit rate : 80 b/s
Frame rate : 0.314 FPS
Count of elements : 1546
Stream size : 48.1 KiB (0%)
Title : SDH
Language : English
Default : No
Forced : No

Menu
00:00:00.000 : en:Chapter 01
00:09:54.291 : en:Chapter 02
00:14:51.458 : en:Chapter 03
00:21:15.833 : en:Chapter 04
00:29:08.833 : en:Chapter 05
00:34:16.208 : en:Chapter 06
00:41:56.458 : en:Chapter 07
00:49:06.541 : en:Chapter 08
00:55:46.333 : en:Chapter 09
01:04:12.500 : en:Chapter 10
01:12:01.166 : en:Chapter 11
01:20:06.916 : en:Chapter 12
01:26:42.208 : en:Chapter 13






Christmas.Bloody.Christmas.2022.1080p.BluRay.REMUX.AVC.DTS-HD.MA.5.1-FGT.torrent
还没有人收藏过本帖~
回帖请注意!暂设定扣除1金币!签到可得!
最新回复 (0)
返回
发新帖
即将对游客闭站,请注册账号备用!
影音屋为您提供最新的720P、1080P、2K、4K、原盘高清电影下载,内部交流社区,欢迎体验。影音屋,更多好电影待您发现!
加入影音电报群 加入影音企鹅群 淘宝天猫漏洞单