如资源无法下载,请在「交流」反馈!

[2022][其它][其它][WEB-720P]上帝的笔误 Gods.Crooked.Lines.2022.SPANISH.720p.NF.WEBRip.DDP5.1.x264-SMURF 2.73GB


帖子完整标题:上帝的笔误 Gods.Crooked.Lines.2022.SPANISH.720p.NF.WEBRip.DDP5.1.x264-SMURF 2.73GB



◎标  题 上帝的笔误
◎译  名 God's Crooked Lines
◎片  名 Los renglones torcidos de Dios
◎年  代 2022
◎产  地 西班牙
◎类  别 悬疑
◎语  言 西班牙语
◎上映日期 2022-10-06(西班牙)
◎IMDb评分 7.2/10 (866人评价)
◎IMDb链接 https://www.imdb.com/title/tt13229894/
◎豆瓣链接 https://movie.douban.com/subject/35358584/
◎片  长 154分钟
◎导  演 奥里奥尔·保罗 Oriol Paulo
◎编  剧 Torcuato Luca de Tena Torcuato Luca de Tena
      奥里奥尔·保罗 Oriol Paulo
      拉拉·森迪姆 Lara Sendim
◎演  员 巴巴拉·莱涅 Bárbara Lennie
      爱德华·费尔南德斯 Eduard Fernández
      洛雷托·莫利昂 Loreto Mauleón
      哈维尔·贝尔特兰 Javier Beltrán
      巴勃罗·德尔基 Pablo Derqui
      费德里科·阿瓜多 Federico Aguado
      阿德尔法·卡尔沃 Adelfa Calvo
      达芬斯·巴尔杜兹 Dafnis Balduz
      大卫·塞尔瓦斯 David Selvas
      路易斯·索莱尔 Lluís Soler
      比森特·贝尔加拉 Vicente Vergara
      Txell Aixendri Txell Aixendri
      Joan Crosas Joan Crosas

◎简  介
  Alice, investigadora privada, ingresa en un hospital psiquiátrico simulando una paranoia. Su objetivo es recabar pruebas del caso en el que trabaja: la muerte de un interno en circunstancias poco claras. Sin embargo, la realidad a la que se enfrentará en su encierro superará sus expectativas y pondrá en duda su propia cordura. Un mundo desconocido y apasionante se mostrará ante...

Video
ID : 1
Format : AVC
Format/Info : Advanced Video Codec
Format profile : [email protected]
Format settings : CABAC / 3 Ref Frames
Format settings, CABAC : Yes
Format settings, Reference frames : 3 frames
Codec ID : V_MPEG4/ISO/AVC
Duration : 2 h 35 min
Bit rate mode : Variable
Bit rate : 1 234 kb/s
Nominal bit rate : 1 690 kb/s
Maximum bit rate : 2 535 kb/s
Width : 1 280 pixels
Height : 720 pixels
Display aspect ratio : 16:9
Frame rate mode : Constant
Frame rate : 24.000 FPS
Color space : YUV
Chroma subsampling : 4:2:0
Bit depth : 8 bits
Scan type : Progressive
Bits/(Pixel*Frame) : 0.056
Stream size : 1.34 GiB (49%)
Writing library : x264 core 148 r2727 7d026e8
Encoding settings : cabac=1 / ref=3 / deblock=1:0:0 / analyse=0x1:0x111 / me=umh / subme=10 / psy=1 / psy_rd=1.00:0.00 / mixed_ref=1 / me_range=24 / chroma_me=1 / trellis=2 / 8x8dct=0 / cqm=0 / deadzone=21,11 / fast_pskip=1 / chroma_qp_offset=-2 / threads=8 / lookahead_threads=1 / sliced_threads=0 / nr=0 / decimate=1 / interlaced=0 / bluray_compat=0 / stitchable=1 / constrained_intra=0 / bframes=2 / b_pyramid=0 / b_adapt=2 / b_bias=0 / direct=3 / weightb=1 / open_gop=0 / weightp=2 / keyint=250 / keyint_min=24 / scenecut=0 / intra_refresh=0 / rc_lookahead=48 / rc=2pass / mbtree=1 / bitrate=1690 / ratetol=1.0 / qcomp=0.50 / qpmin=6 / qpmax=51 / qpstep=4 / cplxblur=20.0 / qblur=0.5 / vbv_maxrate=2535 / vbv_bufsize=3380 / nal_hrd=vbr / filler=0 / ip_ratio=1.40 / aq=1:1.00
Language : Spanish
Default : Yes
Forced : No

Audio #1
ID : 2
Format : E-AC-3
Format/Info : Enhanced AC-3
Commercial name : Dolby Digital Plus
Codec ID : A_EAC3
Duration : 2 h 35 min
Bit rate mode : Constant
Bit rate : 640 kb/s
Channel(s) : 6 channels
Channel layout : L R C LFE Ls Rs
Sampling rate : 48.0 kHz
Frame rate : 31.250 FPS (1536 SPF)
Compression mode : Lossy
Stream size : 711 MiB (25%)
Language : Spanish
Service kind : Complete Main
Default : Yes
Forced : No

Audio #2
ID : 3
Format : E-AC-3
Format/Info : Enhanced AC-3
Commercial name : Dolby Digital Plus
Codec ID : A_EAC3
Duration : 2 h 35 min
Bit rate mode : Constant
Bit rate : 640 kb/s
Channel(s) : 6 channels
Channel layout : L R C LFE Ls Rs
Sampling rate : 48.0 kHz
Frame rate : 31.250 FPS (1536 SPF)
Compression mode : Lossy
Stream size : 711 MiB (25%)
Language : English
Service kind : Complete Main
Default : No
Forced : No

Text #1
ID : 4
Format : UTF-8
Codec ID : S_TEXT/UTF8
Codec ID/Info : UTF-8 Plain Text
Duration : 2 h 26 min
Bit rate : 61 b/s
Frame rate : 0.209 FPS
Count of elements : 1840
Stream size : 65.6 KiB (0%)
Language : Spanish
Default : No
Forced : No

Text #2
ID : 5
Format : UTF-8
Codec ID : S_TEXT/UTF8
Codec ID/Info : UTF-8 Plain Text
Duration : 2 h 28 min
Bit rate : 69 b/s
Frame rate : 0.244 FPS
Count of elements : 2177
Stream size : 75.3 KiB (0%)
Title : SDH
Language : Spanish
Default : No
Forced : No

Text #3
ID : 6
Format : UTF-8
Codec ID : S_TEXT/UTF8
Codec ID/Info : UTF-8 Plain Text
Duration : 1 h 58 min
Bit rate : 1 b/s
Frame rate : 0.005 FPS
Count of elements : 35
Stream size : 1 003 Bytes (0%)
Title : Forced
Language : English
Default : No
Forced : Yes

Text #4
ID : 7
Format : UTF-8
Codec ID : S_TEXT/UTF8
Codec ID/Info : UTF-8 Plain Text
Duration : 2 h 33 min
Bit rate : 53 b/s
Frame rate : 0.189 FPS
Count of elements : 1735
Stream size : 60.5 KiB (0%)
Language : English
Default : No
Forced : No

Text #5
ID : 8
Format : UTF-8
Codec ID : S_TEXT/UTF8
Codec ID/Info : UTF-8 Plain Text
Duration : 2 h 34 min
Bit rate : 77 b/s
Frame rate : 0.274 FPS
Count of elements : 2536
Stream size : 87.8 KiB (0%)
Title : SDH
Language : English
Default : No
Forced : No

Text #6
ID : 9
Format : UTF-8
Codec ID : S_TEXT/UTF8
Codec ID/Info : UTF-8 Plain Text
Duration : 2 h 27 min
Bit rate : 94 b/s
Frame rate : 0.201 FPS
Count of elements : 1781
Stream size : 103 KiB (0%)
Language : Arabic
Default : No
Forced : No

Text #7
ID : 10
Format : UTF-8
Codec ID : S_TEXT/UTF8
Codec ID/Info : UTF-8 Plain Text
Duration : 2 h 33 min
Bit rate : 48 b/s
Frame rate : 0.184 FPS
Count of elements : 1703
Stream size : 54.9 KiB (0%)
Language : Czech
Default : No
Forced : No

Text #8
ID : 11
Format : UTF-8
Codec ID : S_TEXT/UTF8
Codec ID/Info : UTF-8 Plain Text
Duration : 2 h 33 min
Bit rate : 50 b/s
Frame rate : 0.172 FPS
Count of elements : 1593
Stream size : 57.1 KiB (0%)
Language : Danish
Default : No
Forced : No

Text #9
ID : 12
Format : UTF-8
Codec ID : S_TEXT/UTF8
Codec ID/Info : UTF-8 Plain Text
Duration : 2 h 33 min
Bit rate : 87 b/s
Frame rate : 0.188 FPS
Count of elements : 1731
Stream size : 97.7 KiB (0%)
Language : Greek
Default : No
Forced : No

Text #10
ID : 13
Format : UTF-8
Codec ID : S_TEXT/UTF8
Codec ID/Info : UTF-8 Plain Text
Duration : 2 h 33 min
Bit rate : 51 b/s
Frame rate : 0.169 FPS
Count of elements : 1559
Stream size : 57.8 KiB (0%)
Language : Finnish
Default : No
Forced : No

Text #11
ID : 14
Format : UTF-8
Codec ID : S_TEXT/UTF8
Codec ID/Info : UTF-8 Plain Text
Duration : 2 h 33 min
Bit rate : 49 b/s
Frame rate : 0.188 FPS
Count of elements : 1741
Stream size : 55.5 KiB (0%)
Language : fil
Default : No
Forced : No

Text #12
ID : 15
Format : UTF-8
Codec ID : S_TEXT/UTF8
Codec ID/Info : UTF-8 Plain Text
Duration : 2 h 33 min
Bit rate : 48 b/s
Frame rate : 0.181 FPS
Count of elements : 1673
Stream size : 55.0 KiB (0%)
Language : French
Default : No
Forced : No

Text #13
ID : 16
Format : UTF-8
Codec ID : S_TEXT/UTF8
Codec ID/Info : UTF-8 Plain Text
Duration : 2 h 33 min
Bit rate : 79 b/s
Frame rate : 0.194 FPS
Count of elements : 1788
Stream size : 89.7 KiB (0%)
Language : Hebrew
Default : No
Forced : No

Text #14
ID : 17
Format : UTF-8
Codec ID : S_TEXT/UTF8
Codec ID/Info : UTF-8 Plain Text
Duration : 2 h 33 min
Bit rate : 45 b/s
Frame rate : 0.178 FPS
Count of elements : 1648
Stream size : 51.4 KiB (0%)
Language : Croatian
Default : No
Forced : No

Text #15
ID : 18
Format : UTF-8
Codec ID : S_TEXT/UTF8
Codec ID/Info : UTF-8 Plain Text
Duration : 2 h 33 min
Bit rate : 51 b/s
Frame rate : 0.186 FPS
Count of elements : 1719
Stream size : 58.5 KiB (0%)
Language : Hungarian
Default : No
Forced : No

Text #16
ID : 19
Format : UTF-8
Codec ID : S_TEXT/UTF8
Codec ID/Info : UTF-8 Plain Text
Duration : 2 h 33 min
Bit rate : 50 b/s
Frame rate : 0.186 FPS
Count of elements : 1714
Stream size : 56.6 KiB (0%)
Language : Indonesian
Default : No
Forced : No

Text #17
ID : 20
Format : UTF-8
Codec ID : S_TEXT/UTF8
Codec ID/Info : UTF-8 Plain Text
Duration : 2 h 33 min
Bit rate : 52 b/s
Frame rate : 0.191 FPS
Count of elements : 1755
Stream size : 58.7 KiB (0%)
Language : Italian
Default : No
Forced : No

Text #18
ID : 21
Format : UTF-8
Codec ID : S_TEXT/UTF8
Codec ID/Info : UTF-8 Plain Text
Duration : 2 h 33 min
Bit rate : 49 b/s
Frame rate : 0.200 FPS
Count of elements : 1838
Stream size : 55.7 KiB (0%)
Language : Japanese
Default : No
Forced : No

Text #19
ID : 22
Format : UTF-8
Codec ID : S_TEXT/UTF8
Codec ID/Info : UTF-8 Plain Text
Duration : 2 h 34 min
Bit rate : 68 b/s
Frame rate : 0.198 FPS
Count of elements : 1832
Stream size : 77.4 KiB (0%)
Language : Korean
Default : No
Forced : No

Text #20
ID : 23
Format : UTF-8
Codec ID : S_TEXT/UTF8
Codec ID/Info : UTF-8 Plain Text
Duration : 2 h 33 min
Bit rate : 51 b/s
Frame rate : 0.182 FPS
Count of elements : 1681
Stream size : 58.3 KiB (0%)
Language : Malay
Default : No
Forced : No

Text #21
ID : 24
Format : UTF-8
Codec ID : S_TEXT/UTF8
Codec ID/Info : UTF-8 Plain Text
Duration : 2 h 27 min
Bit rate : 51 b/s
Frame rate : 0.193 FPS
Count of elements : 1710
Stream size : 56.0 KiB (0%)
Language : Norwegian Bokmal
Default : No
Forced : No

Text #22
ID : 25
Format : UTF-8
Codec ID : S_TEXT/UTF8
Codec ID/Info : UTF-8 Plain Text
Duration : 2 h 33 min
Bit rate : 51 b/s
Frame rate : 0.179 FPS
Count of elements : 1658
Stream size : 58.2 KiB (0%)
Language : Dutch
Default : No
Forced : No

Text #23
ID : 26
Format : UTF-8
Codec ID : S_TEXT/UTF8
Codec ID/Info : UTF-8 Plain Text
Duration : 2 h 33 min
Bit rate : 46 b/s
Frame rate : 0.189 FPS
Count of elements : 1734
Stream size : 52.2 KiB (0%)
Language : Polish
Default : No
Forced : No

Text #24
ID : 27
Format : UTF-8
Codec ID : S_TEXT/UTF8
Codec ID/Info : UTF-8 Plain Text
Duration : 2 h 33 min
Bit rate : 51 b/s
Frame rate : 0.192 FPS
Count of elements : 1776
Stream size : 58.5 KiB (0%)
Title : Brazilian
Language : Portuguese
Default : No
Forced : No

Text #25
ID : 28
Format : UTF-8
Codec ID : S_TEXT/UTF8
Codec ID/Info : UTF-8 Plain Text
Duration : 2 h 33 min
Bit rate : 51 b/s
Frame rate : 0.190 FPS
Count of elements : 1753
Stream size : 58.0 KiB (0%)
Language : Portuguese
Default : No
Forced : No

Text #26
ID : 29
Format : UTF-8
Codec ID : S_TEXT/UTF8
Codec ID/Info : UTF-8 Plain Text
Duration : 2 h 33 min
Bit rate : 57 b/s
Frame rate : 0.192 FPS
Count of elements : 1770
Stream size : 65.1 KiB (0%)
Language : Romanian
Default : No
Forced : No

Text #27
ID : 30
Format : UTF-8
Codec ID : S_TEXT/UTF8
Codec ID/Info : UTF-8 Plain Text
Duration : 2 h 33 min
Bit rate : 81 b/s
Frame rate : 0.190 FPS
Count of elements : 1744
Stream size : 91.9 KiB (0%)
Language : Russian
Default : No
Forced : No

Text #28
ID : 31
Format : UTF-8
Codec ID : S_TEXT/UTF8
Codec ID/Info : UTF-8 Plain Text
Duration : 2 h 33 min
Bit rate : 49 b/s
Frame rate : 0.172 FPS
Count of elements : 1587
Stream size : 56.3 KiB (0%)
Language : Swedish
Default : No
Forced : No

Text #29
ID : 32
Format : UTF-8
Codec ID : S_TEXT/UTF8
Codec ID/Info : UTF-8 Plain Text
Duration : 2 h 33 min
Bit rate : 139 b/s
Frame rate : 0.193 FPS
Count of elements : 1787
Stream size : 158 KiB (0%)
Language : Thai
Default : No
Forced : No

Text #30
ID : 33
Format : UTF-8
Codec ID : S_TEXT/UTF8
Codec ID/Info : UTF-8 Plain Text
Duration : 2 h 33 min
Bit rate : 51 b/s
Frame rate : 0.182 FPS
Count of elements : 1680
Stream size : 58.3 KiB (0%)
Language : Turkish
Default : No
Forced : No

Text #31
ID : 34
Format : UTF-8
Codec ID : S_TEXT/UTF8
Codec ID/Info : UTF-8 Plain Text
Duration : 2 h 33 min
Bit rate : 83 b/s
Frame rate : 0.176 FPS
Count of elements : 1629
Stream size : 93.8 KiB (0%)
Language : Ukrainian
Default : No
Forced : No

Text #32
ID : 35
Format : UTF-8
Codec ID : S_TEXT/UTF8
Codec ID/Info : UTF-8 Plain Text
Duration : 2 h 33 min
Bit rate : 73 b/s
Frame rate : 0.175 FPS
Count of elements : 1613
Stream size : 82.8 KiB (0%)
Language : Vietnamese
Default : No
Forced : No

Menu
02:28:40.000 : en:End Credits




还没有人收藏过本帖~
回帖请注意!暂设定扣除1金币!签到可得!
最新回复 (0)
返回
发新帖
即将对游客闭站,请注册账号备用!
影音屋为您提供最新的720P、1080P、2K、4K、原盘高清电影下载,内部交流社区,欢迎体验。影音屋,更多好电影待您发现!
加入影音电报群 加入影音企鹅群 淘宝天猫漏洞单