如资源无法下载,请在「交流」反馈!

[2006][欧美][剧情][WEB-1080P]舞动天地 Take.the.Lead.2006.1080p.AMZN.WEBRip.DD5.1.x264-NOGRP 11.22GB


帖子完整标题:舞动天地 Take.the.Lead.2006.1080p.AMZN.WEBRip.DD5.1.x264-NOGRP 11.22GB



◎标  题 舞动天地
◎译  名 舞.出色 / 情舞师生 / 独领风潮 / 舞之精灵
◎片  名 Take the Lead
◎年  代 2006
◎产  地 美国
◎类  别 剧情 / 音乐
◎语  言 英语
◎上映日期 2006-04-07
◎IMDb评分 6.6/10 (25414人评价)
◎IMDb链接 https://www.imdb.com/title/tt0446046/
◎豆瓣评分 7.7/10 (5375人评价)
◎豆瓣链接 https://movie.douban.com/subject/1762492/
◎片  长 118 分钟
◎导  演 丽兹·弗德兰德 Liz Friedlander
◎编  剧 戴安妮·休斯顿 Dianne Houston
◎演  员 安东尼奥·班德拉斯 Antonio Banderas
      罗伯·布朗 Rob Brown
      阿尔法·伍达德 Alfre Woodard
      珍娜·迪万 Jenna Dewan
      亚雅·达科斯塔 Yaya DaCosta
      伊利亚·凯利 Elijah Kelley
      约翰·奥提兹 John Ortiz
      托尼·克雷格 Tony Craig
      贾西卡·妮可 Jasika Nicole
      卡佳范瑞西拉斯 Katya Virshilas
      马库斯·T·保尔克 Marcus T. Paulk
      Marc Gagne Marc Gagne
      劳拉·本纳蒂 Laura Benanti
      Jonathan Malen Jonathan Malen
      Philip Adkins
      Shawand McKenzie
      丹特·巴斯克 Dante Basco
      劳伦·科林斯 Lauren Collins

◎标  签 舞蹈 / 美国 / 励志 / 歌舞 / 青春 / AntonioBanderas / 美国电影 / 2006

◎简  介
    杜兰尼(安东尼奥·班德拉斯 Antonio Banderas 饰)是一位小有名气的舞蹈家,但是,事业上的成功并不能弥补他的空虚感,因为在杜兰尼的内心里,将舞蹈的精髓发扬光大,让每一个人都感受到舞蹈的乐趣和自由才是他真正想要到达的终点。怀抱着这样的理想,杜兰尼开始行动了。   杜兰尼将据点设在了位于纽约的一间公共学校之中,虽然做好了最坏的打算,可接下来发生的事情依旧让杜兰尼感到沮丧和失落。不过世上无难事只怕有心人,随着时间的流逝,越来越多的学生们加入到了杜兰尼的舞蹈学习班里来,通过和这些年轻又富有活力的年轻人交流,杜兰尼也找到了自己新的人生意义。

Video
ID : 1
Format : AVC
Format/Info : Advanced Video Codec
Format profile : [email protected]
Format settings : CABAC / 4 Ref Frames
Format settings, CABAC : Yes
Format settings, Reference frames : 4 frames
Codec ID : V_MPEG4/ISO/AVC
Duration : 1 h 57 min
Bit rate mode : Variable
Bit rate : 13.3 Mb/s
Maximum bit rate : 15.0 Mb/s
Width : 1 920 pixels
Height : 1 080 pixels
Display aspect ratio : 16:9
Frame rate mode : Constant
Frame rate : 23.976 (24000/1001/189150) FPS
Color space : YUV
Chroma subsampling : 4:2:0
Bit depth : 8 bits
Scan type : Progressive
Bits/(Pixel*Frame) : 0.268
Stream size : 10.9 GiB (97%)
Writing library : x264 core 148 r2623 d5b2374
Encoding settings : cabac=1 / ref=4 / deblock=1:-1:-1 / analyse=0x3:0x133 / me=umh / subme=9 / psy=1 / psy_rd=1.00:0.15 / mixed_ref=1 / me_range=24 / chroma_me=1 / trellis=2 / 8x8dct=1 / cqm=0 / deadzone=21,11 / fast_pskip=1 / chroma_qp_offset=-3 / threads=34 / lookahead_threads=5 / sliced_threads=0 / nr=150 / decimate=1 / interlaced=0 / bluray_compat=0 / constrained_intra=0 / bframes=8 / b_pyramid=2 / b_adapt=2 / b_bias=0 / direct=3 / weightb=1 / open_gop=0 / weightp=2 / keyint=120 / keyint_min=61 / scenecut=0 / intra_refresh=0 / rc_lookahead=120 / rc=crf / mbtree=1 / crf=18.0 / qcomp=0.60 / qpmin=0 / qpmax=69 / qpstep=4 / vbv_maxrate=15000 / vbv_bufsize=31250 / crf_max=0.0 / nal_hrd=vbr / filler=0 / ip_ratio=1.40 / aq=3:1.00
Language : English
Default : Yes
Forced : No
Color range : Limited
Color primaries : BT.709
Transfer characteristics : BT.709
Matrix coefficients : BT.709

Audio
ID : 2
Format : AC-3
Format/Info : Audio Coding 3
Commercial name : Dolby Digital
Codec ID : A_AC3
Duration : 1 h 57 min
Bit rate mode : Constant
Bit rate : 384 kb/s
Channel(s) : 6 channels
Channel layout : L R C LFE Ls Rs
Sampling rate : 48.0 kHz
Frame rate : 31.250 FPS (1536 SPF)
Compression mode : Lossy
Stream size : 321 MiB (3%)
Language : English
Service kind : Complete Main
Default : Yes
Forced : No

Text #1
ID : 3
Format : UTF-8
Codec ID : S_TEXT/UTF8
Codec ID/Info : UTF-8 Plain Text
Duration : 1 h 56 min
Bit rate : 73 b/s
Frame rate : 0.275 FPS
Count of elements : 1924
Stream size : 62.5 KiB (0%)
Language : English
Default : Yes
Forced : No

Text #2
ID : 4
Format : UTF-8
Codec ID : S_TEXT/UTF8
Codec ID/Info : UTF-8 Plain Text
Duration : 1 h 56 min
Bit rate : 78 b/s
Frame rate : 0.294 FPS
Count of elements : 2056
Stream size : 67.0 KiB (0%)
Title : SDH
Language : English
Default : No
Forced : No

Text #3
ID : 5
Format : UTF-8
Codec ID : S_TEXT/UTF8
Codec ID/Info : UTF-8 Plain Text
Duration : 1 h 56 min
Bit rate : 229 b/s
Frame rate : 0.249 FPS
Count of elements : 1747
Stream size : 196 KiB (0%)
Title : Spanish
Language : Spanish
Default : No
Forced : No

Text #4
ID : 6
Format : UTF-8
Codec ID : S_TEXT/UTF8
Codec ID/Info : UTF-8 Plain Text
Duration : 1 h 56 min
Bit rate : 196 b/s
Frame rate : 0.227 FPS
Count of elements : 1591
Stream size : 168 KiB (0%)
Title : Portuguese (Brazil)
Language : Portuguese
Default : No
Forced : No

Menu
00:00:00.000 : en:Studio Logos
00:00:18.000 : en:Everyone gets ready for the night, Opening Credits
00:02:42.000 : en:Rock gets dressed while Gretchen and Augustine prepare for the dance
00:03:16.000 : en:Pierre dances and introduces his students
00:04:38.000 : en:The kids get down
00:05:20.000 : en:Rock encounters a problem at the dance
00:07:15.000 : en:Rock takes justice into his own hands
00:09:25.000 : en:Pierre gets ready for his first day
00:13:07.000 : en:Pierre has a meeting with Augustine
00:16:39.000 : en:Pierre gets a new job
00:19:53.000 : en:Pierre pairs up the students
00:22:09.000 : en:Pierre has to take on new responsibilities
00:24:11.000 : en:The kids head to school while Pierre and Augustine discuss the students
00:25:59.000 : en:Pierre attempts to get the kids to dance
00:30:08.000 : en:Pierre starts to teach the kids the Foxtrot
00:31:30.000 : en:LaRhette\'s mother comes home with a guy, LaRhette\'s living room
00:32:12.000 : en:Pierre and the kids compare music
00:34:44.000 : en:Rock confronts Pierre about his presence
00:35:34.000 : en:Caitlin expresses her discontentment with her dancing skills
00:36:43.000 : en:Pierre brings in Morgan
00:40:26.000 : en:Augustine and Pierre discuss his class
00:41:04.000 : en:Caitlin joins the other kids
00:44:08.000 : en:Pierre and Rock discuss being a troubled youth
00:45:38.000 : en:Rock has a rough day
00:48:57.000 : en:Caitlin tries to get along with the other kids
00:49:51.000 : en:The kids show Pierre their remixed versions of his songs
00:53:48.000 : en:Rock drops off money at home
00:54:26.000 : en:Woodley comes over
00:55:18.000 : en:Rock pays for rent while LaRhette deals with Woodley
00:57:03.000 : en:Rock runs into LaRhette
00:59:26.000 : en:Pierre picks Rock up
01:01:38.000 : en:Pierre punishes Rock and LaRhette
01:03:19.000 : en:Pierre teaches the Tango to the kids
01:03:52.000 : en:Kurd talks to Pierre about dancing with Big Girl
01:05:43.000 : en:Pierre gets Rock and LaRhette to do the waltz
01:07:45.000 : en:Pierre takes the kids to his dance studio
01:12:34.000 : en:Mr. Temple reports Augustine while Pierre motivates the kids to dance
01:16:04.000 : en:Mr. Temple and the PTA put Pierre on trial
01:19:16.000 : en:Ramos and Danjou get into a fight
01:20:56.000 : en:Rock and LaRhette get to know each other
01:22:53.000 : en:Monster and Caitlin talks about her cotillion
01:23:53.000 : en:The kids practice for the competition
01:25:17.000 : en:LaRhette asks Rock to dance with her in the competition
01:26:14.000 : en:LaRhette and Rock practice
01:27:15.000 : en:The kids choose their outfits for the competition
01:28:44.000 : en:Rock and Easy talk about Saturday
01:29:32.000 : en:Pierre gets a bike while Sasha, LaRhette, and Ramos get dressed
01:30:17.000 : en:The kids arrive
01:31:46.000 : en:Rock attempts to get out of the deal
01:32:58.000 : en:The kids dance in the Salsa competition, ballroom
01:33:53.000 : en:Rock makes a decision
01:34:44.000 : en:Caitlin and Monster dance at her cotillion
01:36:03.000 : en:The kids dance in the tango competition
01:38:05.000 : en:The tango battle against Morgan and Travis heats up
01:41:49.000 : en:The winners are announced
01:43:38.000 : en:Rock shows up to dance with LaRhette
01:47:08.000 : en:Rock confesses to defacing Augustine\'s car
01:49:43.000 : en:The kids continue to dance, End Credits
01:54:32.000 : en:End Credits






Take.the.Lead.2006.1080p.AMZN.WEBRip.DD5.1.x264-NOGRP.torrent
还没有人收藏过本帖~
回帖请注意!暂设定扣除1金币!签到可得!
最新回复 (0)
返回
发新帖
即将对游客闭站,请注册账号备用!
影音屋为您提供最新的720P、1080P、2K、4K、原盘高清电影下载,内部交流社区,欢迎体验。影音屋,更多好电影待您发现!
加入影音电报群 加入影音企鹅群 淘宝天猫漏洞单