如资源无法下载,请在「交流」反馈!

[2017][其它][剧情][BD-4K]玉子 Okja.2017.2160p.BluRay.x264.8bit.SDR.DTS-HD.MA.TrueHD.7.1.Atmos-SWTYBLZ 22.39


帖子完整标题:玉子 Okja.2017.2160p.BluRay.x264.8bit.SDR.DTS-HD.MA.TrueHD.7.1.Atmos-SWTYBLZ 22.39GB



◎标  题 玉子
◎译  名 Okja
◎片  名 옥자
◎年  代 2017
◎产  地 韩国 / 美国
◎类  别 剧情 / 动作 / 科幻 / 冒险
◎语  言 英语 / 韩语 / 西班牙语
◎上映日期 2017-05-19(戛纳电影节) / 2017-06-28(韩国)
◎IMDb评分 7.3/10 (114090人评价)
◎IMDb链接 https://www.imdb.com/title/tt3967856/
◎豆瓣评分 6.7/10 (36310人评价)
◎豆瓣链接 https://movie.douban.com/subject/26365236/
◎片  长 120分钟
◎导  演 奉俊昊 Joon-ho Bong
◎编  剧 奉俊昊 Joon-ho Bong
      乔恩·容森 Jon Ronson
◎演  员 安瑞贤 Seo-Hyun An
      蒂尔达·斯文顿 Tilda Swinton
      保罗·达诺 Paul Dano
      边希峰 Hie-bong Byeon
      史蒂文·元 Steven Yeun
      莉莉·柯林斯 Lily Collins
      尹宰文 Je-mun Yun
      雪莉·亨德森 Shirley Henderson
      丹尼尔·亨绍尔 Daniel Henshall
      戴文·博斯蒂克 Devon Bostick
      崔宇植 Woo-Sik Choi
      吉安卡罗·埃斯波西托 Giancarlo Esposito
      杰克·吉伦哈尔 Jake Gyllenhaal
      李姃垠 Jung-eun Lee
      崔嬉序 Moon Choi
      尹敬浩 Kyung-ho Yoon
      赵莞基 Wan-gi Jo
      迈克尔·米尔顿 Michael Mitton
      凯瑟琳·柯克帕特里克 Kathryn Kirkpatrick
      李凤莲 Lee Bong-ryeon
      朴根禄 Keun-rok Park
      埃里克·德·波尔 Erik De Boer
      科里·格鲁特-安德鲁 Cory Gruter-Andrew
      亚当·奥斯兰德 Adam Auslander
      瓦里丝·阿卢瓦利亚 Waris Ahluwalia
      T· 撒哈拉·米尔 T. Sahara Meer
      安德烈亚斯·弗龙克 Andreas Fronk
      迈尔斯·哈姆帕斯 Myles Humphus
      朴智勋 Park Ji-hoon
      韩利进 Yi-jin Han
      金文学 Moon-hak Kim
      白基善 Gi Seon Bak

◎标  签 韩国 / 科幻 / 2017 / 美国 / 人性 / 剧情 / 怪兽 / 温情

◎简  介
    电影讲述了小女孩美子的故事,她必须以身涉险阻止强大的跨国公司绑架自己最好的朋友 — 巨兽“玉子”。

Video
ID : 1
Format : AVC
Format/Info : Advanced Video Codec
Format profile : [email protected]
Format settings : CABAC / 5 Ref Frames
Format settings, CABAC : Yes
Format settings, Reference frames : 5 frames
Codec ID : V_MPEG4/ISO/AVC
Duration : 2 h 0 min
Bit rate : 17.3 Mb/s
Width : 3 840 pixels
Height : 1 606 pixels
Display aspect ratio : 2.40:1
Frame rate mode : Constant
Frame rate : 23.976 (24000/1001/189150) FPS
Color space : YUV
Chroma subsampling : 4:2:0
Bit depth : 8 bits
Scan type : Progressive
Bits/(Pixel*Frame) : 0.117
Stream size : 14.6 GiB (66%)
Writing library : x264 core 157 r2935 545de2f
Encoding settings : cabac=1 / ref=5 / deblock=1:-1:-1 / analyse=0x3:0x113 / me=umh / subme=10 / psy=1 / psy_rd=1.00:0.15 / mixed_ref=1 / me_range=48 / chroma_me=1 / trellis=2 / 8x8dct=1 / cqm=0 / deadzone=21,11 / fast_pskip=1 / chroma_qp_offset=-3 / threads=48 / lookahead_threads=4 / sliced_threads=0 / nr=0 / decimate=0 / interlaced=0 / bluray_compat=0 / constrained_intra=0 / bframes=3 / b_pyramid=2 / b_adapt=2 / b_bias=0 / direct=3 / weightb=1 / open_gop=0 / weightp=2 / keyint=250 / keyint_min=23 / scenecut=40 / intra_refresh=0 / rc_lookahead=50 / rc=crf / mbtree=1 / crf=18.0 / qcomp=0.60 / qpmin=0 / qpmax=69 / qpstep=4 / ip_ratio=1.40 / aq=1:1.00
Default : Yes
Forced : No

Audio #1
ID : 2
ID in the original source medium : 4352 (0x1100)
Format : MLP FBA 16-ch
Format/Info : Meridian Lossless Packing FBA with 16-channel presentation
Commercial name : Dolby TrueHD with Dolby Atmos
Codec ID : A_TRUEHD
Duration : 2 h 0 min
Bit rate mode : Variable
Bit rate : 4 231 kb/s
Maximum bit rate : 7 347 kb/s
Channel(s) : 8 channels
Channel layout : L R C LFE Ls Rs Lb Rb
Sampling rate : 48.0 kHz
Frame rate : 1 200.000 FPS (40 SPF)
Bit depth : 24 bits
Compression mode : Lossless
Stream size : 3.57 GiB (16%)
Title : TrueHD 7.1 Atmos
Language : English
Default : Yes
Forced : No
Original source medium : Blu-ray
Number of dynamic objects : 11
Bed channel count : 1 channel
Bed channel configuration : LFE

Audio #2
ID : 3
Format : DTS XLL
Format/Info : Digital Theater Systems
Commercial name : DTS-HD Master Audio
Codec ID : A_DTS
Duration : 2 h 0 min
Bit rate mode : Variable
Bit rate : 4 095 kb/s
Channel(s) : 8 channels
Channel layout : C L R LFE Lb Rb Lss Rss
Sampling rate : 48.0 kHz
Frame rate : 93.750 FPS (512 SPF)
Bit depth : 24 bits
Compression mode : Lossless
Stream size : 3.46 GiB (16%)
Title : DTS-HD MA 7.1
Language : English
Default : No
Forced : No

Audio #3
ID : 4
ID in the original source medium : 4352 (0x1100)
Format : AC-3
Format/Info : Audio Coding 3
Commercial name : Dolby Digital
Codec ID : A_AC3
Duration : 2 h 0 min
Bit rate mode : Constant
Bit rate : 640 kb/s
Channel(s) : 6 channels
Channel layout : L R C LFE Ls Rs
Sampling rate : 48.0 kHz
Frame rate : 31.250 FPS (1536 SPF)
Compression mode : Lossy
Stream size : 554 MiB (2%)
Title : DD 5.1
Language : English
Service kind : Complete Main
Default : No
Forced : No
Original source medium : Blu-ray

Text #1
ID : 5
Format : UTF-8
Codec ID : S_TEXT/UTF8
Codec ID/Info : UTF-8 Plain Text
Duration : 1 h 53 min
Bit rate : 7 b/s
Count of elements : 277
Stream size : 6.44 KiB (0%)
Title : FORCED
Language : English
Default : No
Forced : Yes

Text #2
ID : 6
Format : UTF-8
Codec ID : S_TEXT/UTF8
Codec ID/Info : UTF-8 Plain Text
Duration : 1 h 59 min
Bit rate : 41 b/s
Count of elements : 1135
Stream size : 36.1 KiB (0%)
Language : English
Default : Yes
Forced : No

Text #3
ID : 7
Format : UTF-8
Codec ID : S_TEXT/UTF8
Codec ID/Info : UTF-8 Plain Text
Duration : 1 h 59 min
Bit rate : 50 b/s
Count of elements : 1406
Stream size : 43.9 KiB (0%)
Title : SDH
Language : English
Default : No
Forced : No

Text #4
ID : 8
ID in the original source medium : 4768 (0x12A0)
Format : PGS
Muxing mode : zlib
Codec ID : S_HDMV/PGS
Codec ID/Info : Picture based subtitle format used on BDs/HD-DVDs
Duration : 1 h 53 min
Bit rate : 6 963 b/s
Count of elements : 572
Stream size : 5.66 MiB (0%)
Language : English
Default : No
Forced : No
Original source medium : Blu-ray

Text #5
ID : 9
ID in the original source medium : 4769 (0x12A1)
Format : PGS
Muxing mode : zlib
Codec ID : S_HDMV/PGS
Codec ID/Info : Picture based subtitle format used on BDs/HD-DVDs
Duration : 1 h 59 min
Bit rate : 44.3 kb/s
Count of elements : 2874
Stream size : 37.9 MiB (0%)
Language : English
Default : No
Forced : No
Original source medium : Blu-ray

Menu
00:00:00.000 : en:Chapter 01
00:05:48.264 : en:Chapter 02
00:10:00.725 : en:Chapter 03
00:19:11.650 : en:Chapter 04
00:26:12.779 : en:Chapter 05
00:31:39.564 : en:Chapter 06
00:34:39.702 : en:Chapter 07
00:39:23.903 : en:Chapter 08
00:46:40.589 : en:Chapter 09
00:50:18.807 : en:Chapter 10
01:00:00.555 : en:Chapter 11
01:07:20.036 : en:Chapter 12
01:09:27.371 : en:Chapter 13
01:10:18.964 : en:Chapter 14
01:15:45.624 : en:Chapter 15
01:19:35.312 : en:Chapter 16
01:26:16.838 : en:Chapter 17
01:33:05.663 : en:Chapter 18
01:35:54.039 : en:Chapter 19
01:38:04.628 : en:Chapter 20
01:39:51.902 : en:Chapter 21
01:43:54.436 : en:Chapter 22
01:49:06.414 : en:Chapter 23






Okja.2017.2160p.BluRay.x264.8bit.SDR.DTS-HD.MA.TrueHD.7.1.Atmos-SWTYBLZ.torrent
还没有人收藏过本帖~
回帖请注意!暂设定扣除1金币!签到可得!
最新回复 (0)
返回
发新帖
即将对游客闭站,请注册账号备用!
影音屋为您提供最新的720P、1080P、2K、4K、原盘高清电影下载,内部交流社区,欢迎体验。影音屋,更多好电影待您发现!
加入影音电报群 加入影音企鹅群 淘宝天猫漏洞单