如资源无法下载,请在「交流」反馈!

[2020][其它][剧情][BD-720P]特征可识别 Identifying.Features.2020.720p.BluRay.x264-USURY 2.24GB


帖子完整标题:特征可识别 Identifying.Features.2020.720p.BluRay.x264-USURY 2.24GB



◎标  题 特征可识别
◎译  名 Identifying Features
◎片  名 Sin Señas Particulares
◎年  代 2020
◎产  地 墨西哥 / 西班牙
◎类  别 剧情
◎语  言 西班牙语
◎上映日期 2020-01-25(圣丹斯电影节)
◎IMDb评分 7.4/10 (1255人评价)
◎IMDb链接 https://www.imdb.com/title/tt11394282/
◎豆瓣评分 7.2/10 (179人评价)
◎豆瓣链接 https://movie.douban.com/subject/34907412/
◎片  长 95分钟
◎导  演 费尔南达·瓦莱德兹 Fernanda Valadez
◎编  剧 费尔南达·瓦莱德兹 Fernanda Valadez
◎演  员 费尔南达·瓦莱德兹 Fernanda Valadez
      费尔南达·瓦莱德兹 Fernanda Valadez

◎标  签 墨西哥 / 2020 / 剧情 / 人性 / 西班牙 / 电影 / SIFF / 西班牙语

◎简  介
  墨西哥母亲玛格达勒娜在前往美墨边境寻找失踪儿子的路途中,遇到了不久前被美国驱逐出境的男子米格尔。玛格达勒娜寻子,而米格尔则希望能再见他母亲一面。在这混乱且充满未知的旅途中,两人结伴同行。

Video
ID : 1
Format : AVC
Format/Info : Advanced Video Codec
Format profile : [email protected]
Format settings : CABAC / 12 Ref Frames
Format settings, CABAC : Yes
Format settings, Reference frames : 12 frames
Codec ID : V_MPEG4/ISO/AVC
Duration : 1 h 39 min
Bit rate : 2 590 kb/s
Width : 1 280 pixels
Height : 536 pixels
Display aspect ratio : 2.40:1
Frame rate mode : Constant
Frame rate : 24.000 FPS
Color space : YUV
Chroma subsampling : 4:2:0
Bit depth : 8 bits
Scan type : Progressive
Bits/(Pixel*Frame) : 0.157
Stream size : 1.79 GiB (80%)
Writing library : x264 core 164 r3095 baee400
Encoding settings : cabac=1 / ref=12 / deblock=1:-3:-3 / analyse=0x3:0x133 / me=umh / subme=10 / psy=1 / psy_rd=1.00:0.15 / mixed_ref=1 / me_range=24 / chroma_me=1 / trellis=2 / 8x8dct=1 / cqm=0 / deadzone=21,11 / fast_pskip=1 / chroma_qp_offset=-3 / threads=17 / lookahead_threads=2 / sliced_threads=0 / nr=0 / decimate=1 / interlaced=0 / bluray_compat=0 / constrained_intra=0 / bframes=8 / b_pyramid=2 / b_adapt=2 / b_bias=0 / direct=3 / weightb=1 / open_gop=0 / weightp=2 / keyint=250 / keyint_min=24 / scenecut=40 / intra_refresh=0 / rc_lookahead=60 / rc=crf / mbtree=1 / crf=16.0 / qcomp=0.60 / qpmin=0 / qpmax=69 / qpstep=4 / ip_ratio=1.40 / aq=3:0.60
Language : English
Default : Yes
Forced : No
Color range : Limited
Matrix coefficients : BT.709

Audio
ID : 2
Format : AC-3
Format/Info : Audio Coding 3
Commercial name : Dolby Digital
Codec ID : A_AC3
Duration : 1 h 39 min
Bit rate mode : Constant
Bit rate : 640 kb/s
Channel(s) : 6 channels
Channel layout : L R C LFE Ls Rs
Sampling rate : 48.0 kHz
Frame rate : 31.250 FPS (1536 SPF)
Compression mode : Lossy
Stream size : 454 MiB (20%)
Language : Spanish
Service kind : Complete Main
Default : Yes
Forced : No

Text
ID : 3
Format : UTF-8
Codec ID : S_TEXT/UTF8
Codec ID/Info : UTF-8 Plain Text
Duration : 1 h 32 min
Bit rate : 19 b/s
Count of elements : 422
Stream size : 13.5 KiB (0%)
Title : English
Language : English
Default : Yes
Forced : Yes

Menu
00:00:00.000 : en:00:00:00.000
00:07:41.208 : en:00:07:41.208
00:18:08.333 : en:00:18:08.333
00:25:15.083 : en:00:25:15.083
00:32:17.125 : en:00:32:17.125
00:43:22.417 : en:00:43:22.417
00:51:18.667 : en:00:51:18.667
01:00:43.542 : en:01:00:43.542
01:09:17.833 : en:01:09:17.833
01:17:14.208 : en:01:17:14.208
01:25:50.875 : en:01:25:50.875
01:33:59.208 : en:01:33:59.208






Identifying.Features.2020.720p.BluRay.x264-USURY.torrent
还没有人收藏过本帖~
回帖请注意!暂设定扣除1金币!签到可得!
最新回复 (0)
返回
发新帖
即将对游客闭站,请注册账号备用!
影音屋为您提供最新的720P、1080P、2K、4K、原盘高清电影下载,内部交流社区,欢迎体验。影音屋,更多好电影待您发现!
加入影音电报群 加入影音企鹅群 淘宝天猫漏洞单