如资源无法下载,请在「交流」反馈!

[更 早][其它][其它][BD-720P]手掌 The.Hand.1965.720p.BluRay.x264-BiPOLAR 655.61MB


帖子完整标题:手掌 The.Hand.1965.720p.BluRay.x264-BiPOLAR 655.61MB



◎标  题 手掌
◎译  名 手 / The Hand
◎片  名 Ruka
◎年  代 1965
◎产  地 捷克斯洛伐克
◎类  别 动画 / 短片
◎语  言 无对白
◎上映日期 1965
◎IMDb评分 7.9/10 (1792人评价)
◎IMDb链接 https://www.imdb.com/title/tt0239921/
◎豆瓣评分 8.7/10 (1470人评价)
◎豆瓣链接 https://movie.douban.com/subject/1460853/
◎片  长 18 分钟
◎导  演 伊里·特恩卡 Jiří Trnka
◎编  剧 伊里·特恩卡 Jiří Trnka

◎简  介
  2006年法国安锡(Annecy)国际动画电影节上,本片被评为“动画的世纪•100部作品”第25名。
以制造花盆为业的工匠专心致志工作时,遭遇一支庞大的手,强迫他为它制作一个雕像,工匠拒绝听命,将该手赶出门外,然而这支手是赶不走的,它无处不在,除了门窗,它还可以通过电话 、电视机和报纸将命令传达。最终,工匠屈服,可是必须受其严格控制呆在一个巨大的笼子里展开工作,而一旦踏进该笼子,就再难出去。

Video
ID : 1
Format : AVC
Format/Info : Advanced Video Codec
Format profile : [email protected]
Format settings : CABAC / 11 Ref Frames
Format settings, CABAC : Yes
Format settings, Reference frames : 11 frames
Codec ID : V_MPEG4/ISO/AVC
Duration : 18 min 35 s
Bit rate : 3 575 kb/s
Width : 984 pixels
Height : 720 pixels
Display aspect ratio : 4:3
Frame rate mode : Constant
Frame rate : 24.000 FPS
Color space : YUV
Chroma subsampling : 4:2:0
Bit depth : 8 bits
Scan type : Progressive
Bits/(Pixel*Frame) : 0.210
Stream size : 475 MiB (73%)
Writing library : x264 core 164 r3095 baee400
Encoding settings : cabac=1 / ref=11 / deblock=1:-3:-3 / analyse=0x3:0x133 / me=umh / subme=10 / psy=1 / psy_rd=1.00:0.15 / mixed_ref=1 / me_range=24 / chroma_me=1 / trellis=2 / 8x8dct=1 / cqm=0 / deadzone=21,11 / fast_pskip=1 / chroma_qp_offset=-3 / threads=18 / lookahead_threads=3 / sliced_threads=0 / nr=0 / decimate=1 / interlaced=0 / bluray_compat=0 / constrained_intra=0 / bframes=8 / b_pyramid=2 / b_adapt=2 / b_bias=0 / direct=3 / weightb=1 / open_gop=0 / weightp=2 / keyint=250 / keyint_min=24 / scenecut=40 / intra_refresh=0 / rc_lookahead=60 / rc=crf / mbtree=1 / crf=17.0 / qcomp=0.60 / qpmin=0 / qpmax=69 / qpstep=4 / ip_ratio=1.40 / aq=3:0.50
Language : English
Default : Yes
Forced : No
Color range : Limited
Matrix coefficients : BT.709

Audio
ID : 2
Format : FLAC
Format/Info : Free Lossless Audio Codec
Codec ID : A_FLAC
Duration : 18 min 35 s
Bit rate mode : Variable
Bit rate : 1 354 kb/s
Channel(s) : 2 channels
Channel layout : L R
Sampling rate : 48.0 kHz
Frame rate : 11.719 FPS (4096 SPF)
Bit depth : 24 bits
Compression mode : Lossless
Stream size : 180 MiB (27%)
Writing library : libFLAC 1.2.1 (UTC 2007-09-17)
Language : zxx
Default : Yes
Forced : No

Menu
00:00:00.000 : en:00:00:00.000
00:06:44.708 : en:00:06:44.708
00:12:27.000 : en:00:12:27.000






The.Hand.1965.720p.BluRay.x264-BiPOLAR.torrent
还没有人收藏过本帖~
回帖请注意!暂设定扣除1金币!签到可得!
最新回复 (0)
返回
发新帖
即将对游客闭站,请注册账号备用!
影音屋为您提供最新的720P、1080P、2K、4K、原盘高清电影下载,内部交流社区,欢迎体验。影音屋,更多好电影待您发现!
加入影音电报群 加入影音企鹅群 淘宝天猫漏洞单