如资源无法下载,请在「交流」反馈!

[2022][欧美][喜剧][BD-720P]瞬息全宇宙 Everything.Everywhere.All.at.Once.2022.720p.BluRay.x264-PiGNUS 6.44GB


帖子完整标题:瞬息全宇宙 Everything.Everywhere.All.at.Once.2022.720p.BluRay.x264-PiGNUS 6.44GB



◎标  题 瞬息全宇宙
◎译  名 妈的多重宇宙(台) / 全部世界同时一切 / 瞬息各处所有 / 天马行空(新加坡) / 奇异女侠玩救宇宙(港)
◎片  名 Everything Everywhere All at Once
◎年  代 2022
◎产  地 美国
◎类  别 喜剧 / 奇幻 / 冒险
◎语  言 英语 / 汉语普通话 / 粤语
◎上映日期 2022-03-11(西南偏南电影节) / 2022-03-25(美国)
◎IMDb评分 8.8/10 (43077人评价)
◎IMDb链接 https://www.imdb.com/title/tt6710474/
◎豆瓣评分 8.7/10 (11759人评价)
◎豆瓣链接 https://movie.douban.com/subject/30314848/
◎片  长 132分钟
◎导  演 丹·关 Dan Kwan
      丹尼尔·施纳特 Daniel Scheinert
◎编  剧 丹·关 Dan Kwan
      丹尼尔·施纳特 Daniel Scheinert
◎演  员 杨紫琼 Michelle Yeoh
      斯蒂芬妮·许 Stephanie Hsu
      关继威 Jonathan Ke Quan
      吴汉章 James Hong
      杰米·李·柯蒂斯 Jamie Lee Curtis
      珍妮·斯蕾特 Jenny Slate
      塔丽·梅德尔 Tallie Medel
      岑勇康 Harry Shum Jr.
      比夫·威夫 Biff Wiff
      苏妮特·玛尼 Sunita Mani
      阿隆·拉扎尔 Aaron Lazar
      布莱恩·勒 Brian Le
      安迪·黎 Andy Le
      切尔西·戈德史密斯 Chelsey Goldsmith
      克雷格·亨宁森 Craig Henningsen
      安东尼·莫利纳利 Anthony Molinari
      丹·布朗 Dan Brown
      帕努瓦特·安东尼·纳纳肯帕诺姆 Panuvat Anthony Nanakornpanom
      卡拉·玛丽·乔尔简 Cara Marie Chooljian
      兰达尔·阿切尔 Randall Archer
      埃夫卡·科瓦拉西尤斯 Efka Kvaraciejus
      奥德丽·瓦西莱夫斯基 Audrey Wasilewski
      布恩·平考 Boon Pin Koh
      蒂莫西·尤里齐 Timothy Eulich
      西协美智子 Michiko Nishiwaki
      蒂莫西·斯科特·拉尔斯顿 Timothy Scott Ralston
      D.Y. Sao D.Y. Sao
      安东尼·罗素 Anthony Russo
      乔·罗素 Joe Russo
      丹尼尔·施纳特 Daniel Scheinert
      丹·关 Dan Kwan
      杨紫琼 Michelle Yeoh
      萨拉·芬兰 Sarah Finn
      迈克·拉罗卡 Mike Larocca
      托德·马库拉思 Todd Makurath
      萨拉·芬兰 Sarah Finn

◎简  介
  55岁的美国华裔移民秀莲(杨紫琼 饰)家庭事业两崩溃。在老爸爸生日大寿这天,除了要阻止女儿(斯蒂芬妮·许 饰)暴走出柜、替无用丈夫(关继威 饰)擦屁股,还得去税务局向古板大婶(杰米·李·柯蒂斯 饰)解释不太妙的税务问题。才踏进大楼电梯,软烂丈夫竟摇身一变演起黑客任务,声 称自己是另一个宇宙的版本,而秀莲也是千万宇宙里的其中一个。还来不及理解,邪恶势力已在多元宇宙中蔓延,世界即将毁灭,只有在这个宇宙里,“一无是处”的秀莲才能拯救世界……

Video
ID : 1
Format : AVC
Format/Info : Advanced Video Codec
Format profile : [email protected]
Format settings : CABAC / 8 Ref Frames
Format settings, CABAC : Yes
Format settings, Reference frames : 8 frames
Codec ID : V_MPEG4/ISO/AVC
Duration : 2 h 19 min
Bit rate : 5 822 kb/s
Width : 1 280 pixels
Height : 690 pixels
Display aspect ratio : 1.85:1
Frame rate mode : Constant
Frame rate : 23.976 (24000/1001/189150) FPS
Color space : YUV
Chroma subsampling : 4:2:0
Bit depth : 8 bits
Scan type : Progressive
Bits/(Pixel*Frame) : 0.275
Stream size : 5.67 GiB (88%)
Writing library : x264 core 164 r3095 baee400
Encoding settings : cabac=1 / ref=8 / deblock=1:-3:-3 / analyse=0x3:0x133 / me=umh / subme=9 / psy=1 / psy_rd=1.00:0.00 / mixed_ref=1 / me_range=16 / chroma_me=1 / trellis=2 / 8x8dct=1 / cqm=0 / deadzone=21,11 / fast_pskip=1 / chroma_qp_offset=-2 / threads=22 / lookahead_threads=1 / sliced_threads=0 / nr=0 / decimate=1 / interlaced=0 / bluray_compat=0 / constrained_intra=0 / bframes=3 / b_pyramid=2 / b_adapt=2 / b_bias=0 / direct=3 / weightb=1 / open_gop=0 / weightp=2 / keyint=250 / keyint_min=23 / scenecut=40 / intra_refresh=0 / rc_lookahead=60 / rc=crf / mbtree=1 / crf=15.0 / qcomp=0.60 / qpmin=0 / qpmax=69 / qpstep=4 / ip_ratio=1.40 / aq=1:1.00
Default : Yes
Forced : No

Audio #1
ID : 2
Format : AC-3
Format/Info : Audio Coding 3
Commercial name : Dolby Digital
Codec ID : A_AC3
Duration : 2 h 19 min
Bit rate mode : Constant
Bit rate : 640 kb/s
Channel(s) : 6 channels
Channel layout : L R C LFE Ls Rs
Sampling rate : 48.0 kHz
Frame rate : 31.250 FPS (1536 SPF)
Compression mode : Lossy
Stream size : 638 MiB (10%)
Language : English
Service kind : Complete Main
Default : Yes
Forced : No

Audio #2
ID : 3
Format : AAC LC
Format/Info : Advanced Audio Codec Low Complexity
Codec ID : A_AAC-2
Duration : 2 h 19 min
Bit rate : 98.6 kb/s
Channel(s) : 2 channels
Channel layout : L R
Sampling rate : 48.0 kHz
Frame rate : 46.875 FPS (1024 SPF)
Compression mode : Lossy
Delay relative to video : 9 ms
Stream size : 98.2 MiB (1%)
Title : Commentary
Language : English
Default : No
Forced : No

Text #1
ID : 4
Format : PGS
Muxing mode : zlib
Codec ID : S_HDMV/PGS
Codec ID/Info : Picture based subtitle format used on BDs/HD-DVDs
Duration : 2 h 15 min
Bit rate : 39.2 kb/s
Count of elements : 4244
Stream size : 38.0 MiB (1%)
Title : English SDH
Language : English
Default : No
Forced : No

Text #2
ID : 5
Format : PGS
Muxing mode : zlib
Codec ID : S_HDMV/PGS
Codec ID/Info : Picture based subtitle format used on BDs/HD-DVDs
Duration : 2 h 17 min
Bit rate : 31.0 kb/s
Count of elements : 3428
Stream size : 30.5 MiB (0%)
Title : Spanish
Language : Spanish
Default : No
Forced : No

Text #3
ID : 6
Format : PGS
Muxing mode : zlib
Codec ID : S_HDMV/PGS
Codec ID/Info : Picture based subtitle format used on BDs/HD-DVDs
Duration : 2 h 17 min
Bit rate : 27.5 kb/s
Count of elements : 3446
Stream size : 27.1 MiB (0%)
Title : Chinese
Language : Chinese
Default : No
Forced : No

Menu
00:00:00.000 : en:Chapter 01
00:07:05.050 : en:Chapter 02
00:11:45.705 : en:Chapter 03
00:24:55.327 : en:Chapter 04
00:32:52.262 : en:Chapter 05
00:42:08.109 : en:Chapter 06
00:52:26.602 : en:Chapter 07
01:01:51.625 : en:Chapter 08
01:10:27.974 : en:Chapter 09
01:17:09.041 : en:Chapter 10
01:25:09.104 : en:Chapter 11
01:31:54.509 : en:Chapter 12
01:39:50.818 : en:Chapter 13
01:51:25.679 : en:Chapter 14
01:59:09.142 : en:Chapter 15
02:10:08.467 : en:Chapter 16
02:19:19.142 : en:Chapter 17






Everything.Everywhere.All.at.Once.2022.720p.BluRay.x264-PiGNUS.torrent
还没有人收藏过本帖~
回帖请注意!暂设定扣除1金币!签到可得!
最新回复 (0)
返回
发新帖
即将对游客闭站,请注册账号备用!
影音屋为您提供最新的720P、1080P、2K、4K、原盘高清电影下载,内部交流社区,欢迎体验。影音屋,更多好电影待您发现!
加入影音电报群 加入影音企鹅群 淘宝天猫漏洞单