如资源无法下载,请在「交流」反馈!

[2022][欧美][动作][BD-720P]记忆 Memory.2022.720p.BluRay.x264-PiGNUS 4.00GB


帖子完整标题:记忆 Memory.2022.720p.BluRay.x264-PiGNUS 4.00GB



◎标  题 记忆
◎译  名 记忆杀神(台) / 失忆刺客 / 记忆营救
◎片  名 Memory
◎年  代 2022
◎产  地 美国
◎类  别 动作 / 惊悚
◎语  言 英语
◎上映日期 2022-04-29(美国)
◎IMDb评分 5.6/10 (1497人评价)
◎IMDb链接 https://www.imdb.com/title/tt11827628/
◎豆瓣链接 https://movie.douban.com/subject/34970422/
◎片  长 114分钟
◎导  演 马丁·坎贝尔 Martin Campbell
◎编  剧 达里奥·斯卡达潘 Dario Scardapane
      杰弗·格瑞特 Jef Geeraerts
      卡尔·乔斯 Carl Joos
      艾瑞克·范·洛依 Erik Van Looy
◎演  员 连姆·尼森 Liam Neeson
      莫妮卡·贝鲁奇 Monica Bellucci
      盖·皮尔斯 Guy Pearce
      雷·史蒂文森 Ray Stevenson
      塔伊·阿特沃尔 Taj Atwal
      斯特拉·斯托克尔 Stella Stocker
      路易·曼迪勒 Louis Mandylor
      雷·费隆 Ray Fearon
      安东尼奥·杰拉米洛 Antonio Jaramillo
      李·布罗德曼 Lee Boardman
      娜塔莉·安德森 Natalie Anderson
      蕾贝卡·卡尔德 Rebecca Calder
      哈罗德·托雷斯 Harold Torres
      西加尔·迪亚曼特 Sigal Diamant
      凯特·尼科尔斯 Kate Nichols
      阿塔纳斯·斯雷布雷夫 Atanas Srebrev
      斯科特·威廉斯 Scot Williams
      道格·拉奥 Doug Rao

◎简  介
  该片改编自2003年丹麦影片《冷面赤心》。
讲述亚历克斯·刘易斯(连姆·尼森 饰)是一位以谨慎精准著称的刺客专家。亚历克斯在拒绝完成一个危险的犯罪组织的任务后,他成为了被刺杀的目标,他必须去追杀那些想要他死的人。美国联邦调查局资深探员文森特·塞拉(盖·皮尔斯 饰)、琳达·阿米斯蒂德(塔伊·阿特沃尔 饰)和墨西哥情报联络员雨果·马克斯(哈罗德·托雷斯 饰)被请来调查那些被刺杀的尸体的踪迹,他们由此更接近亚历克斯,但也引来当地科技大亨达瓦娜·西尔曼(莫妮卡·贝鲁奇 饰)的愤怒。在犯罪集团和美国联邦调查局的紧追不舍下,亚历克斯有能力逃开,但他正与严重失忆作斗争,这影响了他的一举一动。随着细节的模糊和敌人的逼近,亚历克斯开始质疑自己的一举一动,以及他最终能信任谁。

Video
ID : 1
Format : AVC
Format/Info : Advanced Video Codec
Format profile : [email protected]
Format settings : CABAC / 8 Ref Frames
Format settings, CABAC : Yes
Format settings, Reference frames : 8 frames
Codec ID : V_MPEG4/ISO/AVC
Duration : 1 h 54 min
Bit rate : 4 355 kb/s
Width : 1 280 pixels
Height : 536 pixels
Display aspect ratio : 2.40:1
Frame rate mode : Constant
Frame rate : 23.976 (24000/1001/189150) FPS
Color space : YUV
Chroma subsampling : 4:2:0
Bit depth : 8 bits
Scan type : Progressive
Bits/(Pixel*Frame) : 0.265
Stream size : 3.47 GiB (87%)
Writing library : x264 core 164 r3095 baee400
Encoding settings : cabac=1 / ref=8 / deblock=1:-3:-3 / analyse=0x3:0x133 / me=umh / subme=9 / psy=1 / psy_rd=1.00:0.00 / mixed_ref=1 / me_range=16 / chroma_me=1 / trellis=2 / 8x8dct=1 / cqm=0 / deadzone=21,11 / fast_pskip=1 / chroma_qp_offset=-2 / threads=17 / lookahead_threads=1 / sliced_threads=0 / nr=0 / decimate=1 / interlaced=0 / bluray_compat=0 / constrained_intra=0 / bframes=3 / b_pyramid=2 / b_adapt=2 / b_bias=0 / direct=3 / weightb=1 / open_gop=0 / weightp=2 / keyint=250 / keyint_min=23 / scenecut=40 / intra_refresh=0 / rc_lookahead=60 / rc=crf / mbtree=1 / crf=14.0 / qcomp=0.60 / qpmin=0 / qpmax=69 / qpstep=4 / ip_ratio=1.40 / aq=1:1.00
Default : Yes
Forced : No

Audio
ID : 2
Format : AC-3
Format/Info : Audio Coding 3
Commercial name : Dolby Digital
Codec ID : A_AC3
Duration : 1 h 54 min
Bit rate mode : Constant
Bit rate : 640 kb/s
Channel(s) : 6 channels
Channel layout : L R C LFE Ls Rs
Sampling rate : 48.0 kHz
Frame rate : 31.250 FPS (1536 SPF)
Compression mode : Lossy
Stream size : 522 MiB (13%)
Language : English
Service kind : Complete Main
Default : Yes
Forced : No

Text #1
ID : 3
Format : PGS
Muxing mode : zlib
Codec ID : S_HDMV/PGS
Codec ID/Info : Picture based subtitle format used on BDs/HD-DVDs
Duration : 1 h 44 min
Bit rate : 36.0 kb/s
Count of elements : 2686
Stream size : 26.9 MiB (1%)
Title : English SDH
Language : English
Default : No
Forced : No

Text #2
ID : 4
Format : PGS
Muxing mode : zlib
Codec ID : S_HDMV/PGS
Codec ID/Info : Picture based subtitle format used on BDs/HD-DVDs
Duration : 1 h 50 min
Bit rate : 27.6 kb/s
Count of elements : 2292
Stream size : 21.7 MiB (1%)
Title : Spanish
Language : Spanish
Default : No
Forced : No

Menu
00:00:00.000 : en:Chapter 01
00:04:31.188 : en:Chapter 02
00:10:13.696 : en:Chapter 03
00:16:39.916 : en:Chapter 04
00:21:34.126 : en:Chapter 05
00:26:45.062 : en:Chapter 06
00:33:06.026 : en:Chapter 07
00:41:49.632 : en:Chapter 08
00:47:43.486 : en:Chapter 09
00:54:00.404 : en:Chapter 10
00:58:39.516 : en:Chapter 11
01:05:04.025 : en:Chapter 12
01:10:49.162 : en:Chapter 13
01:14:59.620 : en:Chapter 14
01:19:26.470 : en:Chapter 15
01:25:38.258 : en:Chapter 16
01:29:55.473 : en:Chapter 17
01:35:35.355 : en:Chapter 18
01:39:58.993 : en:Chapter 19
01:46:33.053 : en:Chapter 20
01:54:04.004 : en:Chapter 21






Memory.2022.720p.BluRay.x264-PiGNUS.torrent
Everything.Everywhere.All.at.Once.2022.1080p.BluRay.x264-PiGNUS.torrent
还没有人收藏过本帖~
回帖请注意!暂设定扣除1金币!签到可得!
最新回复 (0)
返回
发新帖
即将对游客闭站,请注册账号备用!
影音屋为您提供最新的720P、1080P、2K、4K、原盘高清电影下载,内部交流社区,欢迎体验。影音屋,更多好电影待您发现!
加入影音电报群 加入影音企鹅群 淘宝天猫漏洞单