如资源无法下载,请在「交流」反馈!

[2022][其它][科幻][WEB-1080P]绝命空间站 Rubikon.2022.1080p.WEBRip.DD5.1.x264-CM 5.48GB


帖子完整标题:绝命空间站 Rubikon.2022.1080p.WEBRip.DD5.1.x264-CM 5.48GB



◎标  题 绝命空间站
◎片  名 Rubikon
◎年  代 2022
◎产  地 奥地利
◎类  别 科幻 / 惊悚
◎语  言 英语
◎上映日期 2022-07-01(美国) / 2022-09-15(奥地利)
◎IMDb评分 7.3/10 (26人评价)
◎IMDb链接 https://www.imdb.com/title/tt13829262/
◎豆瓣链接 https://movie.douban.com/subject/35524221/
◎演  员 乔治·布莱顿 George Blagden
      马克·伊瓦涅 Mark Ivanir
      莫妮卡·布廷格 Monika Buttinger

◎简  介
  2056 - Company soldier Hannah and scientists Gavin and Dimitri are on board of RUBIKON space station researching an algae project aimed to provide humanity with a permanent supply of oxygen and food. But all of a sudden the earth beneath them disappears in a brown, toxic fog and all contacts are broken - are they the last survivors? Should they leave the safe station, risk thei...

Video
ID : 1
Format : AVC
Format/Info : Advanced Video Codec
Format profile : [email protected]
Format settings : CABAC / 5 Ref Frames
Format settings, CABAC : Yes
Format settings, Reference frames : 5 frames
Codec ID : V_MPEG4/ISO/AVC
Duration : 1 h 49 min
Bit rate : 6 765 kb/s
Width : 1 912 pixels
Height : 800 pixels
Display aspect ratio : 2.40:1
Frame rate mode : Constant
Frame rate : 24.000 FPS
Color space : YUV
Chroma subsampling : 4:2:0
Bit depth : 8 bits
Scan type : Progressive
Bits/(Pixel*Frame) : 0.184
Stream size : 5.18 GiB (95%)
Language : English
Default : Yes
Forced : No
Color range : Limited
Color primaries : BT.709
Transfer characteristics : BT.709
Matrix coefficients : BT.709

Audio
ID : 2
Format : AC-3
Format/Info : Audio Coding 3
Commercial name : Dolby Digital
Codec ID : A_AC3
Duration : 1 h 49 min
Bit rate mode : Constant
Bit rate : 384 kb/s
Channel(s) : 6 channels
Channel layout : L R C LFE Ls Rs
Sampling rate : 48.0 kHz
Frame rate : 31.250 FPS (1536 SPF)
Compression mode : Lossy
Stream size : 301 MiB (5%)
Language : English
Service kind : Complete Main
Default : Yes
Forced : No

Text #1
ID : 3
Format : UTF-8
Codec ID : S_TEXT/UTF8
Codec ID/Info : UTF-8 Plain Text
Duration : 1 h 35 min
Bit rate : 2 b/s
Count of elements : 66
Stream size : 1.80 KiB (0%)
Title : Forced
Language : English
Default : Yes
Forced : Yes

Text #2
ID : 4
Format : UTF-8
Codec ID : S_TEXT/UTF8
Codec ID/Info : UTF-8 Plain Text
Duration : 1 h 47 min
Bit rate : 50 b/s
Count of elements : 1292
Stream size : 39.5 KiB (0%)
Title : SDH
Language : English
Default : No
Forced : No

Text #3
ID : 5
Format : UTF-8
Codec ID : S_TEXT/UTF8
Codec ID/Info : UTF-8 Plain Text
Duration : 1 h 43 min
Bit rate : 47 b/s
Count of elements : 1158
Stream size : 35.6 KiB (0%)
Language : English
Default : No
Forced : No

Menu
00:00:00.000 : Chapter 01
00:10:50.000 : Chapter 02
00:20:18.660 : Chapter 03
00:30:07.370 : Chapter 04
00:39:59.660 : Chapter 05
00:50:23.120 : Chapter 06
00:59:37.910 : Chapter 07
01:11:33.160 : Chapter 08
01:20:10.160 : Chapter 09
01:31:39.700 : Chapter 10
01:39:53.450 : Chapter 11
01:46:11.330 : Chapter 12






Rubikon.2022.1080p.WEBRip.DD5.1.x264-CM.torrent
还没有人收藏过本帖~
回帖请注意!暂设定扣除1金币!签到可得!
最新回复 (0)
返回
发新帖
即将对游客闭站,请注册账号备用!
影音屋为您提供最新的720P、1080P、2K、4K、原盘高清电影下载,内部交流社区,欢迎体验。影音屋,更多好电影待您发现!
加入影音电报群 加入影音企鹅群 淘宝天猫漏洞单