如资源无法下载,请在「交流」反馈!

[2022][欧美][惊悚][BD-4K]极限困境 Hot.Seat.2022.2160p.WEB-DL.x265.10bit.SDR.DD5.1-CM 8.59GB


帖子完整标题:极限困境 Hot.Seat.2022.2160p.WEB-DL.x265.10bit.SDR.DD5.1-CM 8.59GB



◎标  题 极限困境
◎译  名 破局 / 炸弹陷阱
◎片  名 Hot Seat
◎年  代 2022
◎产  地 美国
◎类  别 惊悚
◎语  言 英语
◎上映日期 2022-07-01(美国)
◎IMDb链接 https://www.imdb.com/title/tt15690300/
◎豆瓣链接 https://movie.douban.com/subject/35629884/
◎导  演 詹姆斯·库伦·布雷萨克 James Cullen Bressack
◎演  员 梅尔·吉布森 Mel Gibson
      莎侬·多赫提 Shannen Doherty
      迈克·韦尔奇 Michael Welch
      凯文·狄龙 Kevin Dillon
      埃迪·斯蒂普斯 Eddie Steeples
      丽迪雅·赫尔 Lydia Hull
      凯特‧卡茨曼 Kate Katzman
      基思·雅各 Keith Jardine
      安娜·哈尔 Anna Harr
      Jonathan Stoddard Jonathan Stoddard
      迪伦·弗拉施纳 Dylan Flashner
      詹姆斯·库伦·布雷萨克 James Cullen Bressack
      Lester G. Reynolds
      查德·迈克尔·墨瑞 Chad Michael Murray

◎简  介
  An ex-hacker is forced to break into high-level banking institutions, another man must try to penetrate the booby trapped building to get the young man off the hot seat.

Video
ID : 1
Format : HEVC
Format/Info : High Efficiency Video Coding
Format profile : Main [email protected]@High
Codec ID : V_MPEGH/ISO/HEVC
Duration : 1 h 38 min
Bit rate : 12.0 Mb/s
Width : 3 828 pixels
Height : 1 596 pixels
Display aspect ratio : 2.40:1
Frame rate mode : Constant
Frame rate : 23.976 FPS
Color space : YUV
Chroma subsampling : 4:2:0
Bit depth : 10 bits
Bits/(Pixel*Frame) : 0.082
Stream size : 8.32 GiB (97%)
Language : English
Default : Yes
Forced : No
Color range : Limited
Color primaries : BT.709
Transfer characteristics : BT.709
Matrix coefficients : BT.709

Audio
ID : 2
Format : AC-3
Format/Info : Audio Coding 3
Commercial name : Dolby Digital
Codec ID : A_AC3
Duration : 1 h 38 min
Bit rate mode : Constant
Bit rate : 384 kb/s
Channel(s) : 6 channels
Channel layout : L R C LFE Ls Rs
Sampling rate : 48.0 kHz
Frame rate : 31.250 FPS (1536 SPF)
Compression mode : Lossy
Stream size : 272 MiB (3%)
Language : English
Service kind : Complete Main
Default : Yes
Forced : No

Text #1
ID : 3
Format : UTF-8
Codec ID : S_TEXT/UTF8
Codec ID/Info : UTF-8 Plain Text
Duration : 1 h 35 min
Bit rate : 74 b/s
Count of elements : 1534
Stream size : 51.8 KiB (0%)
Title : SDH
Language : English
Default : No
Forced : No

Text #2
ID : 4
Format : UTF-8
Codec ID : S_TEXT/UTF8
Codec ID/Info : UTF-8 Plain Text
Duration : 1 h 30 min
Bit rate : 72 b/s
Count of elements : 1389
Stream size : 48.1 KiB (0%)
Language : English
Default : No
Forced : No

Menu
00:00:00.000 : Chapter 01
00:02:14.592 : Chapter 02
00:16:50.301 : Chapter 03
00:30:55.105 : Chapter 04
00:45:15.882 : Chapter 05
01:00:13.279 : Chapter 06
01:17:12.090 : Chapter 07
01:33:19.808 : Chapter 08






Hot.Seat.2022.2160p.WEB-DL.x265.10bit.SDR.DD5.1-CM.torrent
还没有人收藏过本帖~
回帖请注意!暂设定扣除1金币!签到可得!
最新回复 (0)
返回
发新帖
即将对游客闭站,请注册账号备用!
影音屋为您提供最新的720P、1080P、2K、4K、原盘高清电影下载,内部交流社区,欢迎体验。影音屋,更多好电影待您发现!
加入影音电报群 加入影音企鹅群 淘宝天猫漏洞单