如资源无法下载,请在「交流」反馈!

[2022][欧美][喜剧][WEB-1080P]老友重聚 Gatlopp.2022.1080p.WEBRip.DD5.1.x264-NOGRP 3.93GB


帖子完整标题:老友重聚 Gatlopp.2022.1080p.WEBRip.DD5.1.x264-NOGRP 3.93GB



◎标  题 老友重聚
◎片  名 Gatlopp
◎年  代 2022
◎产  地 美国
◎类  别 喜剧 / 恐怖
◎语  言 英语
◎上映日期 2022-06-27(internet)
◎IMDb链接 https://www.imdb.com/title/tt11615616/
◎豆瓣链接 https://movie.douban.com/subject/35877949/
◎导  演  Alberto Belli
◎编  剧 吉姆·马奥尼 Jim Mahoney
◎演  员 吉姆·马奥尼 Jim Mahoney
      艾美·拉韦尔-兰普曼 Emmy Raver-Lampman
      乔恩·巴斯 Jon Bass

◎简  介
  A group of friends reunite for an evening after one of their own has a gnarly divorce. As it's been almost a decade since they were all together, waxing nostalgic, they decide to play a drinking game. But this is no ordinary game; if they don't bond together to confront their past, they'll be forced to play the game for eternity.

Video
ID : 1
Format : AVC
Format/Info : Advanced Video Codec
Format profile : [email protected]
Format settings : CABAC / 5 Ref Frames
Format settings, CABAC : Yes
Format settings, Reference frames : 5 frames
Codec ID : V_MPEG4/ISO/AVC
Duration : 1 h 20 min
Bit rate : 6 603 kb/s
Width : 1 916 pixels
Height : 796 pixels
Display aspect ratio : 2.40:1
Frame rate mode : Constant
Frame rate : 23.976 (24000/1001/189150) FPS
Color space : YUV
Chroma subsampling : 4:2:0
Bit depth : 8 bits
Scan type : Progressive
Bits/(Pixel*Frame) : 0.181
Stream size : 3.71 GiB (94%)
Language : English
Default : Yes
Forced : No
Color range : Limited
Color primaries : BT.709
Transfer characteristics : BT.709
Matrix coefficients : BT.709

Audio
ID : 2
Format : AC-3
Format/Info : Audio Coding 3
Commercial name : Dolby Digital
Codec ID : A_AC3
Duration : 1 h 20 min
Bit rate mode : Constant
Bit rate : 384 kb/s
Channel(s) : 6 channels
Channel layout : L R C LFE Ls Rs
Sampling rate : 48.0 kHz
Frame rate : 31.250 FPS (1536 SPF)
Compression mode : Lossy
Stream size : 221 MiB (5%)
Language : English
Service kind : Complete Main
Default : Yes
Forced : No

Text
ID : 3
Format : UTF-8
Codec ID : S_TEXT/UTF8
Codec ID/Info : UTF-8 Plain Text
Duration : 1 h 13 min
Bit rate : 106 b/s
Count of elements : 1998
Stream size : 57.3 KiB (0%)
Language : English
Default : Yes
Forced : No






Gatlopp.2022.1080p.WEBRip.DD5.1.x264-NOGRP.torrent
还没有人收藏过本帖~
回帖请注意!暂设定扣除1金币!签到可得!
最新回复 (0)
返回