如资源无法下载,请在「交流」反馈!

[2022][美国][动作][纯净版][BT下载][迷失之城][WebDL-MKV/5.58GB][中字][1080P][美国2022最新动作冒险大片]

已认证 知乎 1月前 36

海报





译  名 迷失之城/迷失D城/失落谜城(台)/失惊无神闯谜城(港)
片  名 The Lost City
年  代 2022
国  家 美国
类  别 动作/冒险/喜剧
语  言 英语
字  幕 中简/中繁/英文
评  分 6.3/10 from 38,510 users
链  接 https://www.imdb.com/title/tt13320622
文件大小 5.58 GB
片  长 112 Min
导  演 艾伦·尼 Aaron Nee
     亚当·尼 Adam Nee
主  演 桑德拉·布洛克 Sandra Bullock
     查宁·塔图姆 Channing Tatum
     丹尼尔·雷德克里夫 Daniel Radcliffe
     达明·乔伊·伦道夫 Da'Vine Joy Randolph
     布拉德·皮特 Brad Pitt
     奥斯卡·努内斯 Oscar Nunez
     帕蒂·哈里森 Patti Harrison
     杨伯文 Bowen Yang
     乔安·普林格尔 Joan Pringle
     赫克托·阿尼巴尔 Hector Anibal
     托马斯·福布斯·约翰逊 Thomas Forbes-Johnson

简介

  洛蕾塔·塞琪(桑德拉·布洛克 饰)是一位才华横溢但与世隔绝的作家。在她的畅销爱情冒险小说里,总会出现许多奇异的地方。而作为本书的封面模特,艾伦(查宁·塔图姆 饰)一生都在致力于展现书中英雄角色“达什”的个人魅力。在与艾伦一起宣传新书时,洛雷塔被一位古怪的亿万富翁(丹尼尔·雷德克里夫 饰)绑架。这位亿万富翁坚信,洛蕾塔的新书能带领他找到失落古城中的宝藏。与此同时,艾伦为了证明自己可以成为现实中的英雄,而不仅仅是洛蕾塔虚构的人物,决定前去营救她。这对极不对付的搭档需要共同努力,才能在险恶的丛林中生存下来,并在亿万富翁赶到前找到古老的宝藏。

Video
Format : AVC
Format/Info : Advanced Video Codec
Format profile : High @ L4
Format settings : CABAC / 4 Ref Frames
Format settings, CABAC : Yes
Format settings, Reference fra : 4 frames
Codec ID : V_MPEG4/ISO/AVC
Duration : 1 h 51 min
Bit rate mode : Constant
Bit rate : 6 486 kb/s
Nominal bit rate : 10 000 kb/s
Width : 1 920 pixels
Height : 1 080 pixels
Display aspect ratio : 16:9
Frame rate mode : Constant
Frame rate : 23.976 (24000/1001) FPS
Color space : YUV
Chroma subsampling : 4:2:0
Bit depth : 8 bits
Scan type : Progressive
Bits/(Pixel*Frame) : 0.130
Stream size : 5.07 GiB (91%)
Color range : Limited
Color primaries : BT.709
Transfer characteristics : BT.709
Matrix coefficients : BT.709

Audio
Format : E-AC-3
Format/Info : Enhanced AC-3
Commercial name : Dolby Digital Plus
Codec ID : A_EAC3
Duration : 1 h 51 min
Bit rate mode : Constant
Bit rate : 640 kb/s
Channel(s) : 6 channels
Channel layout : L R C LFE Ls Rs
Sampling rate : 48.0 kHz
Frame rate : 31.250 FPS (1536 SPF)
Compression mode : Lossy
Stream size : 512 MiB (9%)
Service kind : Complete Main


截图




梦幻天堂·龙网(www.LWgod.org).迷失之城.失落谜城.失惊无神闯谜城.torrent
还没有人收藏过本帖~
回帖请注意!暂设定扣除1金币!签到可得!
最新回复 (2)
  • ▆▇✅▇▆ 最新看黃魸【 null 】ㄖ韓、歐羙、啯产、黑咝、偸啪【 null 】手机浏览噐打幵【 null 】无緩冲~ 佬呞机~你慬的 ▆▇✅▇▆ ↑↑↑↑↑↑ 踪遵罪
    11天前 回复
返回
发新帖
即将对游客闭站,请注册账号备用!
影音屋为您提供最新的720P、1080P、2K、4K、原盘高清电影下载,内部交流社区,欢迎体验。影音屋,更多好电影待您发现!
加入影音电报群 加入影音企鹅群 淘宝天猫漏洞单