如资源无法下载,请在「交流」反馈!

[2021][澳大利亚][惊悚][BD-4K]掘金 Gold.2022.2160p.WEB-DL.x265.10bit.SDR.DD5.1-NOGRP 9.73GB


帖子完整标题:掘金 Gold.2022.2160p.WEB-DL.x265.10bit.SDR.DD5.1-NOGRP 9.73GB



◎译  名 掘金
◎片  名 Gold
◎年  代 2021
◎产  地 澳大利亚
◎类  别 惊悚
◎语  言 英语
◎上映日期 2021-12-23(葡萄牙) / 2022-01-13(美国) / 2022-01-26(澳大利亚)
◎IMDb链接 https://www.imdb.com/title/tt6020800/
◎豆瓣链接 https://movie.douban.com/subject/33447864/
◎导  演 安东尼·海斯 Anthony Hayes (id:1050223)
◎编  剧 安东尼·海斯 Anthony Hayes (id:1050223)
◎演  员 扎克·埃夫隆 Zac Efron (id:1016676)
      苏茜·波特 Susie Porter (id:1294759)
      安东尼·海斯 Anthony Hayes (id:1050223)

◎简  介
  萨姆·沃辛顿将主演惊悚片[掘金](Gold,暂译)。本片由安东尼·海耶斯执导,并与波莉·史密斯共同撰写剧本。该故事讲述两名男子穿越偏远沙漠,偶然发现了他们认为是迄今为止发现的最大金块。于是他们策划了一个挖掘宝藏的计划,一人交托了保护设备,另一人留在后方看护发现的金子。本片将于9月在南澳大利亚开拍。

Video
ID : 1
Format : HEVC
Format/Info : High Efficiency Video Coding
Format profile : [email protected]@High
Codec ID : V_MPEGH/ISO/HEVC
Duration : 1 h 36 min
Bit rate : 14.1 Mb/s
Width : 3 840 pixels
Height : 2 160 pixels
Display aspect ratio : 16:9
Frame rate mode : Constant
Frame rate : 24.000 FPS
Color space : YUV
Chroma subsampling : 4:2:0
Bit depth : 8 bits
Bits/(Pixel*Frame) : 0.071
Stream size : 9.47 GiB (97%)
Default : Yes
Forced : No
Color range : Limited
Color primaries : BT.709
Transfer characteristics : BT.709
Matrix coefficients : BT.709

Audio
ID : 2
Format : AC-3
Format/Info : Audio Coding 3
Commercial name : Dolby Digital
Codec ID : A_AC3
Duration : 1 h 36 min
Bit rate mode : Constant
Bit rate : 384 kb/s
Channel(s) : 6 channels
Channel layout : L R C LFE Ls Rs
Sampling rate : 48.0 kHz
Frame rate : 31.250 FPS (1536 SPF)
Compression mode : Lossy
Stream size : 265 MiB (3%)
Language : English
Service kind : Complete Main
Default : Yes
Forced : No

Text #1
ID : 3
Format : UTF-8
Codec ID : S_TEXT/UTF8
Codec ID/Info : UTF-8 Plain Text
Duration : 1 h 24 min
Bit rate : 18 b/s
Count of elements : 446
Stream size : 11.3 KiB (0%)
Language : English
Default : Yes
Forced : No

Text #2
ID : 4
Format : UTF-8
Codec ID : S_TEXT/UTF8
Codec ID/Info : UTF-8 Plain Text
Duration : 1 h 36 min
Bit rate : 25 b/s
Count of elements : 744
Stream size : 18.0 KiB (0%)
Title : SDH
Language : English
Default : No
Forced : No






Gold.2022.2160p.WEB-DL.x265.10bit.SDR.DD5.1-NOGRP.torrent
还没有人收藏过本帖~
最新回复 (1)
  • ▆▇✅▇▆ 最新看黃魸【 8ccd.xyz 】ㄖ韓、歐羙、啯产、黑咝、偸啪【 8ccd.xyz 】手机浏览噐打开【 8ccd.xyz 】搜罕见稀有绝版资源 ▆▇✅▇▆ 抓自踪
    1天前 回复
返回