如资源无法下载,请在「交流」反馈!

[2021][美国][动画][BD-Remux]夜脊 The.Spine.of.Night.2021.1080p.BluRay.REMUX.AVC.DTS-HD.MA.5.1-FGT 23.63GB


帖子完整标题:夜脊 The.Spine.of.Night.2021.1080p.BluRay.REMUX.AVC.DTS-HD.MA.5.1-FGT 23.63GB



◎译  名 夜脊
◎片  名 The Spine of Night
◎年  代 2021
◎产  地 美国
◎类  别 动画 / 恐怖 / 奇幻
◎语  言 英语
◎上映日期 2021-03-18(西南偏南电影节) / 2021-10-29(美国)
◎IMDb链接 https://www.imdb.com/title/tt3885422/
◎豆瓣评分 6.7/10 (144人评价)
◎豆瓣链接 https://movie.douban.com/subject/30210361/
◎片  长 93分钟(西南偏南电影节)
◎导  演 菲利普·盖拉特 Philip Gelatt (id:1394420)
◎编  剧 菲利普·盖拉特 Philip Gelatt (id:1394420)
◎演  员 理查德·E·格兰特 Richard E. Grant (id:1048188)
      露西·劳莱丝 Lucy Lawless (id:1002669)
      帕顿·奥斯瓦尔特 Patton Oswalt (id:1007015)
      贝蒂·加布里埃尔 Betty Gabriel (id:1360187)
      乔·曼根尼罗 Joe Manganiello (id:1013768)
      帕特里克·布林 Patrick Breen (id:1040762)
      拉瑞·凡斯登 Larry Fessenden (id:1283643)
      汤姆·里皮斯基 Tom Lipinski (id:1319626)
      尼娜·利安德雷罗 Nina Lisandrello (id:1334846)
      艾碧该·萨维奇 Abigail Savage (id:1333384)
      菲利普·盖拉特 Philip Gelatt (id:1394420)

◎简  介
  以魔法之地为背景,邪恶之人为了获得权力,从巫女身上夺取黑魔法,并攻占各城镇,给人类带来了漫长的苦难。来自不同时代及文化的英雄们为了讨伐邪恶力量,联手展开一段血腥暴力的生存之战。 血溅横飞的画面风格,将本片的暴力美学展现到极致,而故事的惊人发展,也让整部电影的张力爆发到极点,宛如动画版〈权力游戏〉令人热血沸腾,是动画少见史诗格局的奇幻艺术杰作。

Video
ID : 1
ID in the original source medium : 4113 (0x1011)
Format : AVC
Format/Info : Advanced Video Codec
Format profile : [email protected]
Format settings : CABAC / 4 Ref Frames
Format settings, CABAC : Yes
Format settings, Reference frames : 4 frames
Codec ID : V_MPEG4/ISO/AVC
Duration : 1 h 33 min
Bit rate mode : Variable
Bit rate : 31.9 Mb/s
Maximum bit rate : 36.0 Mb/s
Width : 1 920 pixels
Height : 1 080 pixels
Display aspect ratio : 16:9
Frame rate mode : Constant
Frame rate : 23.976 (24000/1001/189150) FPS
Color space : YUV
Chroma subsampling : 4:2:0
Bit depth : 8 bits
Scan type : Progressive
Bits/(Pixel*Frame) : 0.641
Stream size : 20.8 GiB (88%)
Language : English
Default : No
Forced : No
Original source medium : Blu-ray

Audio
ID : 2
ID in the original source medium : 4352 (0x1100)
Format : DTS XLL
Format/Info : Digital Theater Systems
Commercial name : DTS-HD Master Audio
Codec ID : A_DTS
Duration : 1 h 33 min
Bit rate mode : Variable
Bit rate : 4 236 kb/s
Channel(s) : 6 channels
Channel layout : C L R Ls Rs LFE
Sampling rate : 48.0 kHz
Frame rate : 93.750 FPS (512 SPF)
Bit depth : 24 bits
Compression mode : Lossless
Stream size : 2.77 GiB (12%)
Title : DTS-HD MA 5.1
Language : English
Default : Yes
Forced : No
Original source medium : Blu-ray

Text #1
ID : 3
Format : UTF-8
Codec ID : S_TEXT/UTF8
Codec ID/Info : UTF-8 Plain Text
Duration : 1 h 25 min
Bit rate : 37 b/s
Count of elements : 807
Stream size : 23.1 KiB (0%)
Language : English
Default : Yes
Forced : No

Text #2
ID : 4
Format : UTF-8
Codec ID : S_TEXT/UTF8
Codec ID/Info : UTF-8 Plain Text
Duration : 1 h 33 min
Bit rate : 41 b/s
Count of elements : 1117
Stream size : 28.5 KiB (0%)
Title : SDH
Language : English
Default : No
Forced : No

Text #3
ID : 5
ID in the original source medium : 4608 (0x1200)
Format : PGS
Muxing mode : zlib
Codec ID : S_HDMV/PGS
Codec ID/Info : Picture based subtitle format used on BDs/HD-DVDs
Duration : 1 h 33 min
Bit rate : 18.7 kb/s
Count of elements : 2270
Stream size : 12.5 MiB (0%)
Language : English
Default : No
Forced : No
Original source medium : Blu-ray

Text #4
ID : 6
ID in the original source medium : 4609 (0x1201)
Format : PGS
Muxing mode : zlib
Codec ID : S_HDMV/PGS
Codec ID/Info : Picture based subtitle format used on BDs/HD-DVDs
Duration : 1 h 25 min
Bit rate : 17.1 kb/s
Count of elements : 1600
Stream size : 10.4 MiB (0%)
Language : French
Default : No
Forced : No
Original source medium : Blu-ray

Text #5
ID : 7
ID in the original source medium : 4610 (0x1202)
Format : PGS
Muxing mode : zlib
Codec ID : S_HDMV/PGS
Codec ID/Info : Picture based subtitle format used on BDs/HD-DVDs
Duration : 1 h 26 min
Bit rate : 15.8 kb/s
Count of elements : 1536
Stream size : 9.76 MiB (0%)
Language : Spanish
Default : No
Forced : No
Original source medium : Blu-ray

Menu
00:00:00.000 : en:Chapter 01
00:16:16.475 : en:Chapter 02
00:29:04.284 : en:Chapter 03
00:46:31.914 : en:Chapter 04
01:04:57.727 : en:Chapter 05
01:12:57.247 : en:Chapter 06
01:19:51.077 : en:Chapter 07
01:29:07.133 : en:Chapter 08






The.Spine.of.Night.2021.1080p.BluRay.REMUX.AVC.DTS-HD.MA.5.1-FGT.torrent
还没有人收藏过本帖~
最新回复 (1)
  • ▆▇✅▇▆ 最新看黃魸【 8ccd.xyz 】ㄖ韓、歐羙、啯产、黑咝、偸啪【 8ccd.xyz 】手机浏览噐打开【 8ccd.xyz 】搜罕见稀有绝版资源 ▆▇✅▇▆ 谆准赚
    1天前 回复
返回