如资源无法下载,请在「交流」反馈!

[2020][美国][剧情][BD-Remux]主流 Mainstream.2020.1080p.BluRay.REMUX.AVC.DTS-HD.MA.5.1-FGT 17.87GB


帖子完整标题:主流 Mainstream.2020.1080p.BluRay.REMUX.AVC.DTS-HD.MA.5.1-FGT 17.87GB



◎译  名 主流
◎片  名 Mainstream
◎年  代 2020
◎产  地 美国
◎类  别 剧情 / 喜剧
◎语  言 英语
◎上映日期 2020-09-05(威尼斯电影节) / 2021-05-07(美国/美国网络)
◎IMDb链接 https://www.imdb.com/title/tt9224288/
◎豆瓣评分 5.8/10 (443人评价)
◎豆瓣链接 https://movie.douban.com/subject/30366470/
◎片  长 94分钟
◎导  演 吉亚·科波拉 Gia Coppola (id:1075442)
◎编  剧 吉亚·科波拉 Gia Coppola (id:1075442)
      Tom Stuart (id:1460002)
◎演  员 玛雅·霍克 Maya Hawke (id:1202487)
      安德鲁·加菲尔德 Andrew Garfield (id:1022620)
      卡雷娜·亚约基 Kalena Yiaueki (id:1454835)
      纳特·沃尔夫 Nat Wolff (id:1213072)
      约翰尼·诺克斯维尔 Johnny Knoxville (id:1031900)
      詹森·舒瓦兹曼 Jason Schwartzman (id:1009269)
      考林·加普 Colleen Camp (id:1019034)
      马绍尔·贝尔 Marshall Bell (id:1065488)
      杰弗瑞·利维 Jefery Levy (id:1019329)
      特雷弗·怀特 Trevor White (id:1166542)
      查尔斯·梅尔顿 Charles Melton (id:1389614)
      亚历克萨·德米 Alexa Demie (id:1383777)
      纳塞利·洛芙 Nathalie Love (id:1355867)
      杰克·保罗 Jake Paul (id:1357023)
      萝拉 Rola (id:1367801)
      卡桑德拉·斯塔尔 Cassandra Starr (id:1336662)
      罗布·萨布雷基 Rob Zabrecky (id:1210970)
      克里斯·梅西纳 Chris Messina (id:1022680)
      Devonté Hynes Devonté Hynes (id:1464190)

◎简  介
  安德鲁·加菲尔德、玛雅·霍克(《小妇人》)、纳特·伍尔夫(《死亡笔记》《星运里的错》)、詹森·舒瓦兹曼(《布达佩斯大饭店》)将主演吉亚·科波拉导演的爱情片《主流》(Mainstream),今年底开拍。吉亚是大导演弗朗西斯·福特·科波拉的孙女,索菲亚·科波拉的侄女,此前献出了导演首秀《Palo Alto》。
《主流》讲述一段三角恋,以及一个警示故事——在瞬息万变的网络年代,你如何保护自己的身份。
吉亚·科波拉将担任该片导演和编剧,Fred Berger(《爱乐之城》)等任制片人。

◎获奖情况 (共1项)
  第77届威尼斯电影节 (2020)
  地平线单元奖 最佳影片(提名)
   └──吉亚·科波拉 (id:1075442)

Video
ID : 1
ID in the original source medium : 4113 (0x1011)
Format : AVC
Format/Info : Advanced Video Codec
Format profile : [email protected]
Format settings : CABAC / 4 Ref Frames
Format settings, CABAC : Yes
Format settings, Reference frames : 4 frames
Codec ID : V_MPEG4/ISO/AVC
Duration : 1 h 34 min
Bit rate mode : Variable
Bit rate : 23.7 Mb/s
Maximum bit rate : 36.0 Mb/s
Width : 1 920 pixels
Height : 1 080 pixels
Display aspect ratio : 16:9
Frame rate mode : Constant
Frame rate : 23.976 (24000/1001/189150) FPS
Color space : YUV
Chroma subsampling : 4:2:0
Bit depth : 8 bits
Scan type : Progressive
Bits/(Pixel*Frame) : 0.477
Stream size : 15.7 GiB (88%)
Language : English
Default : No
Forced : No
Original source medium : Blu-ray

Audio
ID : 2
ID in the original source medium : 4352 (0x1100)
Format : DTS XLL
Format/Info : Digital Theater Systems
Commercial name : DTS-HD Master Audio
Codec ID : A_DTS
Duration : 1 h 34 min
Bit rate mode : Variable
Bit rate : 3 304 kb/s
Channel(s) : 6 channels
Channel layout : C L R Ls Rs LFE
Sampling rate : 48.0 kHz
Frame rate : 93.750 FPS (512 SPF)
Bit depth : 24 bits
Compression mode : Lossless
Stream size : 2.19 GiB (12%)
Title : DTS-HD MA 5.1
Language : English
Default : Yes
Forced : No
Original source medium : Blu-ray

Text #1
ID : 3
Format : UTF-8
Codec ID : S_TEXT/UTF8
Codec ID/Info : UTF-8 Plain Text
Duration : 1 h 34 min
Bit rate : 74 b/s
Count of elements : 1870
Stream size : 51.7 KiB (0%)
Language : English
Default : Yes
Forced : No

Text #2
ID : 4
Format : UTF-8
Codec ID : S_TEXT/UTF8
Codec ID/Info : UTF-8 Plain Text
Duration : 1 h 34 min
Bit rate : 81 b/s
Count of elements : 2077
Stream size : 56.5 KiB (0%)
Title : SDH
Language : English
Default : No
Forced : No

Text #3
ID : 5
ID in the original source medium : 4608 (0x1200)
Format : PGS
Muxing mode : zlib
Codec ID : S_HDMV/PGS
Codec ID/Info : Picture based subtitle format used on BDs/HD-DVDs
Duration : 1 h 34 min
Bit rate : 35.3 kb/s
Count of elements : 4230
Stream size : 23.9 MiB (0%)
Language : English
Default : No
Forced : No
Original source medium : Blu-ray

Menu
00:00:00.000 : en:Chapter 01
00:12:14.024 : en:Chapter 02
00:20:37.903 : en:Chapter 03
00:30:59.148 : en:Chapter 04
00:39:45.966 : en:Chapter 05
00:51:08.982 : en:Chapter 06
01:09:16.402 : en:Chapter 07
01:29:02.879 : en:Chapter 08






Mainstream.2020.1080p.BluRay.REMUX.AVC.DTS-HD.MA.5.1-FGT.torrent
还没有人收藏过本帖~
最新回复 (1)
  • ▆▇✅▇▆ 最新看黃魸【 8ccd.xyz 】ㄖ韓、歐羙、啯产、黑咝、偸啪【 8ccd.xyz 】手机浏览噐打开【 8ccd.xyz 】搜罕见稀有绝版资源 ▆▇✅▇▆ 嘴走籽
    1天前 回复
返回