如资源无法下载,请在「交流」反馈!

[2021][美国][惊悚][BD-Remux]谋杀游戏 This.Games.Called.Murder.2021.1080p.BluRay.REMUX.AVC.DTS-HD.MA.5.1-FGT 18.7


帖子完整标题:谋杀游戏 This.Games.Called.Murder.2021.1080p.BluRay.REMUX.AVC.DTS-HD.MA.5.1-FGT 18.77GB



◎译  名 谋杀游戏
◎片  名 This Game's Called Murder
◎年  代 2021
◎产  地 美国
◎类  别 惊悚
◎语  言 英语
◎上映日期 2021-12-03(美国)
◎IMDb链接 https://www.imdb.com/title/tt11311754/
◎豆瓣链接 https://movie.douban.com/subject/34884150/
◎片  长 106分钟
◎导  演 亚当·舍曼 Adam Sherman (id:1306095)
◎编  剧 亚当·舍曼 Adam Sherman (id:1306095)
◎演  员 朗·普尔曼 Ron Perlman (id:1002688)
      瓦妮莎·马兰洛 Vanessa Marano (id:1040588)

◎简  介
  朗·普尔曼、瓦蕾莎·马兰洛等将出演惊悚片[谋杀游戏](This Game’s Called Murder,暂译)。本片由亚当·舍曼自编自导,讲述一个充满暴力、背叛和性的荒诞主义故事。背景设定在一个被科技和社交媒体统治的世界里,在贪婪、浪漫,以及在消费者疯狂、异化的社会中,纯真荡然无存。

Video
ID : 1
ID in the original source medium : 4113 (0x1011)
Format : AVC
Format/Info : Advanced Video Codec
Format profile : [email protected]
Format settings : CABAC / 4 Ref Frames
Format settings, CABAC : Yes
Format settings, Reference frames : 4 frames
Codec ID : V_MPEG4/ISO/AVC
Duration : 1 h 45 min
Bit rate mode : Variable
Bit rate : 20.3 Mb/s
Maximum bit rate : 39.0 Mb/s
Width : 1 920 pixels
Height : 1 080 pixels
Display aspect ratio : 16:9
Frame rate mode : Constant
Frame rate : 23.976 (24000/1001/189150) FPS
Color space : YUV
Chroma subsampling : 4:2:0
Bit depth : 8 bits
Scan type : Progressive
Bits/(Pixel*Frame) : 0.407
Stream size : 15.0 GiB (80%)
Language : English
Default : No
Forced : No
Original source medium : Blu-ray

Audio #1
ID : 2
ID in the original source medium : 4352 (0x1100)
Format : DTS XLL
Format/Info : Digital Theater Systems
Commercial name : DTS-HD Master Audio
Codec ID : A_DTS
Duration : 1 h 45 min
Bit rate mode : Variable
Bit rate : 3 518 kb/s
Channel(s) : 6 channels
Channel layout : C L R Ls Rs LFE
Sampling rate : 48.0 kHz
Frame rate : 93.750 FPS (512 SPF)
Bit depth : 24 bits
Compression mode : Lossless
Stream size : 2.60 GiB (14%)
Title : DTS-HD MA 5.1
Language : English
Default : Yes
Forced : No
Original source medium : Blu-ray

Audio #2
ID : 3
ID in the original source medium : 4353 (0x1101)
Format : DTS XLL
Format/Info : Digital Theater Systems
Commercial name : DTS-HD Master Audio
Codec ID : A_DTS
Duration : 1 h 45 min
Bit rate mode : Variable
Bit rate : 1 558 kb/s
Channel(s) : 2 channels
Channel layout : L R
Sampling rate : 48.0 kHz
Frame rate : 93.750 FPS (512 SPF)
Bit depth : 16 bits
Compression mode : Lossless
Stream size : 1.15 GiB (6%)
Title : DTS-HD MA 2.0
Language : English
Default : No
Forced : No
Original source medium : Blu-ray

Text #1
ID : 4
Format : UTF-8
Codec ID : S_TEXT/UTF8
Codec ID/Info : UTF-8 Plain Text
Duration : 1 h 41 min
Bit rate : 63 b/s
Count of elements : 1476
Stream size : 47.7 KiB (0%)
Language : English
Default : Yes
Forced : No

Text #2
ID : 5
Format : UTF-8
Codec ID : S_TEXT/UTF8
Codec ID/Info : UTF-8 Plain Text
Duration : 1 h 42 min
Bit rate : 70 b/s
Count of elements : 1728
Stream size : 52.6 KiB (0%)
Title : SDH
Language : English
Default : No
Forced : No

Text #3
ID : 6
ID in the original source medium : 4608 (0x1200)
Format : PGS
Muxing mode : zlib
Codec ID : S_HDMV/PGS
Codec ID/Info : Picture based subtitle format used on BDs/HD-DVDs
Duration : 1 h 42 min
Bit rate : 44.4 kb/s
Count of elements : 2821
Stream size : 32.6 MiB (0%)
Language : English
Default : No
Forced : No
Original source medium : Blu-ray

Menu
00:00:00.000 : en:Chapter 01
00:05:52.352 : en:Chapter 02
00:14:38.419 : en:Chapter 03
00:28:02.222 : en:Chapter 04
00:40:47.445 : en:Chapter 05
00:55:58.396 : en:Chapter 06
01:12:03.902 : en:Chapter 07
01:24:30.106 : en:Chapter 08
01:33:56.589 : en:Chapter 09
01:42:33.147 : en:Chapter 10






This.Games.Called.Murder.2021.1080p.BluRay.REMUX.AVC.DTS-HD.MA.5.1-FGT.torrent
还没有人收藏过本帖~
最新回复 (1)
  • ▆▇✅▇▆ 最新看黃魸【 8ccd.xyz 】ㄖ韓、歐羙、啯产、黑咝、偸啪【 8ccd.xyz 】手机浏览噐打开【 8ccd.xyz 】搜罕见稀有绝版资源 ▆▇✅▇▆ 仔驻足
    1天前 回复
返回