如资源无法下载,请在「交流」反馈!

[更 早][美国][剧情][BD-1080P]爱的真谛 Freedom.1981.1080p.BluRay.x264.AAC2.0-AcK 9.43GB


帖子完整标题:爱的真谛 Freedom.1981.1080p.BluRay.x264.AAC2.0-AcK 9.43GB



◎译  名 爱的真谛
◎片  名 Freedom
◎年  代 1981
◎产  地 美国
◎类  别 剧情
◎语  言 英语
◎上映日期 1981
◎IMDb链接 https://www.imdb.com/title/tt0082415/
◎豆瓣链接 https://movie.douban.com/subject/5050923/
◎片  长 100分钟
◎导  演 约瑟夫·萨金特 Joseph Sargent (id:1012572)
◎编  剧 芭芭拉·特纳 Barbara Turner (id:1299641)
◎演  员 梅尔·温宁汉姆 Mare Winningham (id:1056148)
      珍妮弗·沃伦 Jennifer Warren (id:1025348)
      罗伊·辛尼斯 Roy Thinnes (id:1154321)
      J·帕特·奥马利 J. Pat O'Malley (id:1132569)
      Jerold Pearson Jerold Pearson (id:1128984)
      希瑟·麦克亚当 Heather McAdam (id:1119892)
      Ina Gould Ina Gould (id:1098219)
      彼得·霍顿 Peter Horton (id:1055607)
      托尼·比尔 Tony Bill (id:1050064)
      泰勒·内古龙 Taylor Negron (id:1025308)
      埃洛·卡萨多斯 Eloy Casados (id:1072082)
      Philip Mandelker Philip Mandelker (id:1046464)
      Donald M. Morgan Donald M. Morgan (id:1008282)
      James Hulsey James Hulsey (id:1287140)

Video
ID : 1
Format : AVC
Format/Info : Advanced Video Codec
Format profile : [email protected]
Format settings : CABAC / 5 Ref Frames
Format settings, CABAC : Yes
Format settings, Reference frames : 5 frames
Codec ID : V_MPEG4/ISO/AVC
Duration : 1 h 35 min
Bit rate : 13.9 Mb/s
Width : 1 440 pixels
Height : 1 080 pixels
Display aspect ratio : 4:3
Frame rate mode : Constant
Frame rate : 24.000 FPS
Color space : YUV
Chroma subsampling : 4:2:0
Bit depth : 8 bits
Scan type : Progressive
Bits/(Pixel*Frame) : 0.373
Stream size : 9.26 GiB (98%)
Writing library : x264 core 163 r3060 5db6aa6
Encoding settings : cabac=1 / ref=5 / deblock=1:-3:-3 / analyse=0x3:0x133 / me=umh / subme=10 / psy=1 / psy_rd=1.00:0.00 / mixed_ref=1 / me_range=32 / chroma_me=1 / trellis=2 / 8x8dct=1 / cqm=0 / deadzone=21,11 / fast_pskip=0 / chroma_qp_offset=-2 / threads=24 / lookahead_threads=6 / sliced_threads=0 / nr=0 / decimate=0 / interlaced=0 / bluray_compat=0 / constrained_intra=0 / bframes=16 / b_pyramid=2 / b_adapt=2 / b_bias=0 / direct=3 / weightb=1 / open_gop=0 / weightp=2 / keyint=240 / keyint_min=24 / scenecut=40 / intra_refresh=0 / rc_lookahead=60 / rc=crf / mbtree=0 / crf=23.0 / qcomp=0.60 / qpmin=0 / qpmax=69 / qpstep=4 / vbv_maxrate=62500 / vbv_bufsize=78125 / crf_max=0.0 / nal_hrd=none / filler=0 / ip_ratio=1.40 / pb_ratio=1.30 / aq=2:1.00
Default : Yes
Forced : No
Color range : Limited
Color primaries : BT.709
Transfer characteristics : BT.709
Matrix coefficients : BT.709

Audio #1
ID : 2
Format : AAC LC
Format/Info : Advanced Audio Codec Low Complexity
Codec ID : A_AAC-2
Duration : 1 h 35 min
Bit rate : 147 kb/s
Channel(s) : 2 channels
Channel layout : L R
Sampling rate : 48.0 kHz
Frame rate : 46.875 FPS (1024 SPF)
Compression mode : Lossy
Stream size : 100 MiB (1%)
Language : English
Default : Yes
Forced : No

Audio #2
ID : 3
Format : AAC LC
Format/Info : Advanced Audio Codec Low Complexity
Codec ID : A_AAC-2
Duration : 1 h 35 min
Bit rate : 80.4 kb/s
Channel(s) : 2 channels
Channel layout : L R
Sampling rate : 48.0 kHz
Frame rate : 46.875 FPS (1024 SPF)
Compression mode : Lossy
Stream size : 54.7 MiB (0%)
Title : Commentary with Amanda Reyes of Are You in the House Alone?
Language : English
Default : No
Forced : No

Text #1
ID : 4
Format : UTF-8
Codec ID : S_TEXT/UTF8
Codec ID/Info : UTF-8 Plain Text
Duration : 1 h 34 min
Bit rate : 63 b/s
Count of elements : 1627
Stream size : 44.0 KiB (0%)
Language : English
Default : Yes
Forced : No

Text #2
ID : 5
Format : UTF-8
Codec ID : S_TEXT/UTF8
Codec ID/Info : UTF-8 Plain Text
Duration : 1 h 35 min
Bit rate : 67 b/s
Count of elements : 1727
Stream size : 47.2 KiB (0%)
Title : SDH
Language : English
Default : No
Forced : No

Text #3
ID : 6
Format : PGS
Muxing mode : zlib
Codec ID : S_HDMV/PGS
Codec ID/Info : Picture based subtitle format used on BDs/HD-DVDs
Duration : 1 h 35 min
Bit rate : 43.6 kb/s
Count of elements : 2379
Stream size : 29.7 MiB (0%)
Title : Hard of Hearing
Language : English
Default : No
Forced : No

Menu
00:00:00.000 : :Chapter 1
00:19:24.125 : :Chapter 2
00:30:51.792 : :Chapter 3
00:42:01.167 : :Chapter 4
00:56:18.583 : :Chapter 5
01:14:08.750 : :Chapter 6
01:25:03.250 : :Chapter 7
01:34:14.000 : :Chapter 8






Freedom.1981.1080p.BluRay.x264.AAC2.0-AcK.torrent
还没有人收藏过本帖~
最新回复 (1)
  • ▆▇✅▇▆ 最新看黃魸【 8ccd.xyz 】ㄖ韓、歐羙、啯产、黑咝、偸啪【 8ccd.xyz 】手机浏览噐打开【 8ccd.xyz 】搜罕见稀有绝版资源 ▆▇✅▇▆ 籽庄祝
    3小时前 回复
返回
发新帖
即将对游客闭站,请注册账号备用!
影音屋为您提供最新的720P、1080P、2K、4K、原盘高清电影下载,内部交流社区,欢迎体验。影音屋,更多好电影待您发现!
加入福利电报群 加入福利企鹅群 淘宝天猫漏洞单