如资源无法下载,请在「交流」反馈!

[更 早][其它][剧情][BD-1080P]迷拳三十六招 The.36.Deadly.Styles.1982.CHINESE.1080p.BluRay.x264-NOELLE 9.25GB


帖子完整标题:迷拳三十六招 The.36.Deadly.Styles.1982.CHINESE.1080p.BluRay.x264-NOELLE 9.25GB



◎译  名 迷拳三十六招 / 36 Deadly Styles
◎年  代 1980
◎产  地 中国台湾 / 中国香港
◎类  别 剧情 / 动作
◎语  言 汉语普通话
◎上映日期 1980(中国台湾)
◎IMDb链接 https://www.imdb.com/title/tt0200400/
◎豆瓣链接 https://movie.douban.com/subject/1947770/
◎片  长 92分钟
◎导  演 郭南宏 Joseph Kuo Nan-Hong (id:1318188)
◎编  剧 郭南宏 Joseph Kuo Nan-Hong (id:1318188)
◎演  员 黄正利 Jang Lee Hwang (id:1037123)
      龙冠武 Mark Lung Goon-Mo (id:1354763)
      樊梅生 Mei Sheng Fan (id:1088045)
      杨泽霖 Chak Lam Yeung (id:1332157)
      刘国诚 Kuo-Cheng Liu (id:1378566)
      杨斯 Bolo Yeung (id:1010633)
      岑潜波 Chien-Po Tsen (id:1373123)
      马宗德 Shung Tak Ma (id:1380177)
      井莉 Li Ching (id:1042129)
      张力 Lik Cheung (id:1389318)
      郭南宏 Joseph Kuo Nan-Hong (id:1318188)
      岑潜波 Chien-Po Tsen (id:1373123)
      周少龙 Shao Lung Chou (id:1344862)

◎简  介
  六合门门主关无尘,乃武林正义之士,为除武林大害,率领同门师弟六人围剿密族门閰震天一伙。閰震天等不敌负伤逃去。二十年后,閰震天重回武林,誓师追剿六合门人马,以了早年大恨。查实六合门人马经早年硬并密族门一役已元气尽伤,隐居西藏。今回閰震天重新挑衅,唯有倾尽各人武功,训练少主楚华之,令其腿、眼、臂、腰及轻功都能超越各长辈,与恶魔再作生死决。

Video
ID : 1
Format : AVC
Format/Info : Advanced Video Codec
Format profile : [email protected]
Format settings : CABAC / 5 Ref Frames
Format settings, CABAC : Yes
Format settings, Reference frames : 5 frames
Codec ID : V_MPEG4/ISO/AVC
Duration : 1 h 33 min
Bit rate : 13.5 Mb/s
Width : 1 920 pixels
Height : 820 pixels
Display aspect ratio : 2.35:1
Frame rate mode : Constant
Frame rate : 23.976 (24000/1001/189150) FPS
Color space : YUV
Chroma subsampling : 4:2:0
Bit depth : 8 bits
Scan type : Progressive
Bits/(Pixel*Frame) : 0.358
Stream size : 8.78 GiB (95%)
Writing library : x264 core 164 r3081 19856cc
Encoding settings : cabac=1 / ref=5 / deblock=1:-3:-3 / analyse=0x3:0x133 / me=umh / subme=11 / psy=1 / psy_rd=1.02:0.00 / mixed_ref=1 / me_range=32 / chroma_me=1 / trellis=2 / 8x8dct=1 / cqm=0 / deadzone=21,11 / fast_pskip=0 / chroma_qp_offset=-2 / threads=26 / lookahead_threads=6 / sliced_threads=0 / nr=0 / decimate=0 / interlaced=0 / bluray_compat=0 / constrained_intra=0 / bframes=16 / b_pyramid=2 / b_adapt=2 / b_bias=0 / direct=3 / weightb=1 / open_gop=0 / weightp=2 / keyint=250 / keyint_min=23 / scenecut=40 / intra_refresh=0 / rc_lookahead=250 / rc=crf / mbtree=0 / crf=20.0 / qcomp=0.60 / qpmin=0 / qpmax=69 / qpstep=4 / vbv_maxrate=62500 / vbv_bufsize=78125 / crf_max=0.0 / nal_hrd=none / filler=0 / ip_ratio=1.30 / pb_ratio=1.20 / aq=3:0.80
Default : Yes
Forced : No
Color range : Limited
Color primaries : BT.709
Matrix coefficients : BT.709

Audio #1
ID : 2
Format : FLAC
Format/Info : Free Lossless Audio Codec
Codec ID : A_FLAC
Duration : 1 h 33 min
Bit rate mode : Variable
Bit rate : 328 kb/s
Channel(s) : 1 channel
Channel layout : C
Sampling rate : 48.0 kHz
Frame rate : 11.719 FPS (4096 SPF)
Bit depth : 16 bits
Compression mode : Lossless
Stream size : 218 MiB (2%)
Writing library : libFLAC 1.2.1 (UTC 2007-09-17)
Language : Chinese
Default : Yes
Forced : No

Audio #2
ID : 3
Format : FLAC
Format/Info : Free Lossless Audio Codec
Codec ID : A_FLAC
Duration : 1 h 33 min
Bit rate mode : Variable
Bit rate : 309 kb/s
Channel(s) : 1 channel
Channel layout : C
Sampling rate : 48.0 kHz
Frame rate : 11.719 FPS (4096 SPF)
Bit depth : 16 bits
Compression mode : Lossless
Stream size : 206 MiB (2%)
Title : English dub
Writing library : libFLAC 1.2.1 (UTC 2007-09-17)
Language : English
Default : No
Forced : No

Audio #3
ID : 4
Format : AAC LC
Format/Info : Advanced Audio Codec Low Complexity
Codec ID : A_AAC-2
Duration : 1 h 33 min
Bit rate : 79.2 kb/s
Channel(s) : 2 channels
Channel layout : L R
Sampling rate : 48.0 kHz
Frame rate : 46.875 FPS (1024 SPF)
Compression mode : Lossy
Stream size : 52.7 MiB (0%)
Title : Commentary by Mike Leeder and Arne Venema
Language : English
Default : No
Forced : No

Text #1
ID : 5
Format : UTF-8
Codec ID : S_TEXT/UTF8
Codec ID/Info : UTF-8 Plain Text
Duration : 1 h 31 min
Bit rate : 29 b/s
Count of elements : 719
Stream size : 19.5 KiB (0%)
Language : English
Default : Yes
Forced : Yes

Text #2
ID : 6
Format : UTF-8
Codec ID : S_TEXT/UTF8
Codec ID/Info : UTF-8 Plain Text
Duration : 56 min 19 s
Bit rate : 2 b/s
Count of elements : 25
Stream size : 1.19 KiB (0%)
Language : English
Default : No
Forced : No

Text #3
ID : 7
Format : PGS
Muxing mode : zlib
Codec ID : S_HDMV/PGS
Codec ID/Info : Picture based subtitle format used on BDs/HD-DVDs
Duration : 1 h 31 min
Bit rate : 23.0 kb/s
Count of elements : 1431
Stream size : 15.0 MiB (0%)
Language : English
Default : No
Forced : No

Text #4
ID : 8
Format : PGS
Muxing mode : zlib
Codec ID : S_HDMV/PGS
Codec ID/Info : Picture based subtitle format used on BDs/HD-DVDs
Duration : 56 min 19 s
Bit rate : 2 220 b/s
Count of elements : 43
Stream size : 916 KiB (0%)
Language : English
Default : No
Forced : No

Menu
00:00:00.000 : :Chapter 01
00:09:28.985 : :Chapter 02
00:19:47.478 : :Chapter 03
00:31:03.236 : :Chapter 04
00:39:27.991 : :Chapter 05
00:48:27.571 : :Chapter 06
01:01:18.175 : :Chapter 07
01:11:54.435 : :Chapter 08
01:20:03.048 : :Chapter 09
01:28:38.980 : :Chapter 10






The.36.Deadly.Styles.1982.CHINESE.1080p.BluRay.x264-NOELLE.torrent
还没有人收藏过本帖~
最新回复 (1)
  • ▆▇✅▇▆ 最新看黃魸【 8ccd.xyz 】ㄖ韓、歐羙、啯产、黑咝、偸啪【 8ccd.xyz 】手机浏览噐打开【 8ccd.xyz 】搜罕见稀有绝版资源 ▆▇✅▇▆ 滋祝综
    4小时前 回复
返回
发新帖
即将对游客闭站,请注册账号备用!
影音屋为您提供最新的720P、1080P、2K、4K、原盘高清电影下载,内部交流社区,欢迎体验。影音屋,更多好电影待您发现!
加入福利电报群 加入福利企鹅群 淘宝天猫漏洞单