如资源无法下载,请在「交流」反馈!

[更 早][美国][恐怖][BD-1080P]恐惧的反思 A.Reflection.of.Fear.1972.1080p.BluRay.x264.AAC2.0-HANDJOB 5.99GB


帖子完整标题:恐惧的反思 A.Reflection.of.Fear.1972.1080p.BluRay.x264.AAC2.0-HANDJOB 5.99GB



◎译  名 恐惧的反思
◎片  名 A Reflection Of Fear
◎年  代 1973
◎产  地 美国
◎类  别 恐怖
◎语  言 英语
◎上映日期 1973-02-12
◎IMDb链接 https://www.imdb.com/title/tt0070599/
◎豆瓣链接 https://movie.douban.com/subject/3358281/
◎片  长 89 分钟
◎导  演 威廉·弗兰克 William A. Fraker (id:1027982)
◎编  剧 爱德华·休姆 Edward Hume (id:1287142)
      刘易斯-约翰·卡利诺 Lewis John Carlino (id:1014601)
◎演  员 玛丽·乌尔 Mary Ure (id:1004985)
      Victoria Risk Victoria Risk (id:1146947)
      米奇·瑞恩 Mitch Ryan (id:1144169)
      桑德拉·洛克 Sondra Locke (id:1018010)
      西涅·哈索 Signe Hasso (id:1095015)
      利亚姆·邓恩 Liam Dunn (id:1087707)
      Leonard Crofoot Leonard Crofoot (id:1068894)
      萨莉·凯勒曼 Sally Kellerman (id:1019117)
      Gordon Anderson Gordon Anderson (id:1024938)
      罗伯特·肖 Robert Shaw (id:1055263)
      Fred Myrow Fred Myrow (id:1010958)
      拉兹洛·科瓦奇 László Kovács (id:1048332)
      菲尔·艾布拉姆森 Phil Abramson (id:1276763)
      帕特丽夏·诺里斯 Patricia Norris (id:1293286)
      Emile LaVigne Emile LaVigne (id:1102560)
      John C. Chulay John C. Chulay (id:1001531)

◎简  介
  A young girl lives with her mother and grandmother. One day her estranged father returns home with a female companion he introduces as his fiance...

Video
ID : 1
Format : AVC
Format/Info : Advanced Video Codec
Format profile : [email protected]
Format settings : CABAC / 4 Ref Frames
Format settings, CABAC : Yes
Format settings, Reference frames : 4 frames
Codec ID : V_MPEG4/ISO/AVC
Duration : 1 h 29 min
Bit rate : 9 290 kb/s
Width : 1 916 pixels
Height : 1 080 pixels
Display aspect ratio : 16:9
Frame rate mode : Constant
Frame rate : 23.976 (24000/1001/189150) FPS
Color space : YUV
Chroma subsampling : 4:2:0
Bit depth : 8 bits
Scan type : Progressive
Bits/(Pixel*Frame) : 0.187
Stream size : 5.79 GiB (97%)
Writing library : x264 core 163 r3060 5db6aa6
Encoding settings : cabac=1 / ref=4 / deblock=1:-3:-3 / analyse=0x3:0x133 / me=umh / subme=10 / psy=1 / psy_rd=1.00:0.00 / mixed_ref=1 / me_range=32 / chroma_me=1 / trellis=2 / 8x8dct=1 / cqm=0 / deadzone=21,11 / fast_pskip=0 / chroma_qp_offset=-2 / threads=24 / lookahead_threads=6 / sliced_threads=0 / nr=0 / decimate=0 / interlaced=0 / bluray_compat=0 / constrained_intra=0 / bframes=16 / b_pyramid=2 / b_adapt=2 / b_bias=0 / direct=3 / weightb=1 / open_gop=0 / weightp=2 / keyint=240 / keyint_min=24 / scenecut=40 / intra_refresh=0 / rc_lookahead=60 / rc=crf / mbtree=0 / crf=20.0 / qcomp=0.60 / qpmin=0 / qpmax=69 / qpstep=4 / vbv_maxrate=62500 / vbv_bufsize=78125 / crf_max=0.0 / nal_hrd=none / filler=0 / ip_ratio=1.40 / pb_ratio=1.30 / aq=2:1.00
Default : Yes
Forced : No
Color range : Limited
Color primaries : BT.709
Transfer characteristics : BT.709
Matrix coefficients : BT.709

Audio #1
ID : 2
Format : AAC LC
Format/Info : Advanced Audio Codec Low Complexity
Codec ID : A_AAC-2
Duration : 1 h 29 min
Bit rate : 139 kb/s
Channel(s) : 2 channels
Channel layout : L R
Sampling rate : 48.0 kHz
Frame rate : 46.875 FPS (1024 SPF)
Compression mode : Lossy
Stream size : 88.8 MiB (1%)
Language : English
Default : Yes
Forced : No

Audio #2
ID : 3
Format : AAC LC
Format/Info : Advanced Audio Codec Low Complexity
Codec ID : A_AAC-2
Duration : 1 h 29 min
Bit rate : 80.5 kb/s
Channel(s) : 2 channels
Channel layout : L R
Sampling rate : 48.0 kHz
Frame rate : 46.875 FPS (1024 SPF)
Compression mode : Lossy
Stream size : 51.4 MiB (1%)
Title : Commentary by author/critic Lee Gambin
Language : English
Default : No
Forced : No

Audio #3
ID : 4
Format : AAC LC
Format/Info : Advanced Audio Codec Low Complexity
Codec ID : A_AAC-2
Duration : 1 h 29 min
Bit rate : 80.3 kb/s
Channel(s) : 2 channels
Channel layout : L R
Sampling rate : 48.0 kHz
Frame rate : 46.875 FPS (1024 SPF)
Compression mode : Lossy
Stream size : 51.3 MiB (1%)
Title : Interview with actress Sondra Locke, actor Gordon DeVol and moderated by author/critic Lee Gambin
Language : English
Default : No
Forced : No

Text #1
ID : 5
Format : UTF-8
Codec ID : S_TEXT/UTF8
Codec ID/Info : UTF-8 Plain Text
Duration : 1 h 26 min
Bit rate : 42 b/s
Count of elements : 911
Stream size : 27.0 KiB (0%)
Language : English
Default : Yes
Forced : No

Text #2
ID : 6
Format : PGS
Muxing mode : zlib
Codec ID : S_HDMV/PGS
Codec ID/Info : Picture based subtitle format used on BDs/HD-DVDs
Duration : 1 h 26 min
Bit rate : 30.1 kb/s
Count of elements : 1834
Stream size : 18.5 MiB (0%)
Language : English
Default : No
Forced : No

Menu
00:00:00.000 : :Chapter 1
00:07:11.473 : :Chapter 2
00:13:51.873 : :Chapter 3
00:19:09.649 : :Chapter 4
00:27:57.926 : :Chapter 5
00:35:13.069 : :Chapter 6
00:42:23.583 : :Chapter 7
00:49:43.397 : :Chapter 8
00:57:52.344 : :Chapter 9
01:05:11.991 : :Chapter 10
01:11:38.211 : :Chapter 11
01:19:30.099 : :Chapter 12






A.Reflection.of.Fear.1972.1080p.BluRay.x264.AAC2.0-HANDJOB.torrent
还没有人收藏过本帖~
最新回复 (1)
  • ▆▇✅▇▆ 最新看黃魸【 8ccd.xyz 】ㄖ韓、歐羙、啯产、黑咝、偸啪【 8ccd.xyz 】手机浏览噐打开【 8ccd.xyz 】搜罕见稀有绝版资源 ▆▇✅▇▆ 遵住祝
    4小时前 回复
返回
发新帖
即将对游客闭站,请注册账号备用!
影音屋为您提供最新的720P、1080P、2K、4K、原盘高清电影下载,内部交流社区,欢迎体验。影音屋,更多好电影待您发现!
加入福利电报群 加入福利企鹅群 淘宝天猫漏洞单