如资源无法下载,请在「交流」反馈!

[2014][法国][喜剧][BD-1080P]婚姻情况很复杂 Its.Complicated.2014.FRENCH.1080p.BluRay.x264.DD5.1-HANDJOB 8.09GB


帖子完整标题:婚姻情况很复杂 Its.Complicated.2014.FRENCH.1080p.BluRay.x264.DD5.1-HANDJOB 8.09GB



◎译  名 婚姻情况很复杂
◎片  名 Situation amoureuse: C'est compliqué
◎年  代 2014
◎产  地 法国
◎类  别 喜剧
◎语  言 法语
◎上映日期 2014-03-19(法国)
◎IMDb链接 https://www.imdb.com/title/tt3202408/
◎豆瓣链接 https://movie.douban.com/subject/25813043/
◎片  长 100分钟
◎演  员 阿娜伊斯·德穆斯蒂埃 Ana?s Demoustier (id:1028178)
      让-查理·克里切特 Jean-Charles Clichet (id:1445252)
      让-弗朗索瓦·凯雷 Jean-Fran?ois Cayrey (id:1441823)

Video
ID : 1
Format : AVC
Format/Info : Advanced Video Codec
Format profile : [email protected]
Format settings : CABAC / 5 Ref Frames
Format settings, CABAC : Yes
Format settings, Reference frames : 5 frames
Codec ID : V_MPEG4/ISO/AVC
Duration : 1 h 38 min
Bit rate : 11.1 Mb/s
Width : 1 920 pixels
Height : 816 pixels
Display aspect ratio : 2.35:1
Frame rate mode : Constant
Frame rate : 24.000 FPS
Color space : YUV
Chroma subsampling : 4:2:0
Bit depth : 8 bits
Scan type : Progressive
Bits/(Pixel*Frame) : 0.296
Stream size : 7.64 GiB (94%)
Writing library : x264 core 164 r3065 ae03d92
Encoding settings : cabac=1 / ref=5 / deblock=1:-3:-3 / analyse=0x3:0x133 / me=umh / subme=11 / psy=1 / psy_rd=1.00:0.00 / mixed_ref=1 / me_range=32 / chroma_me=1 / trellis=2 / 8x8dct=1 / cqm=0 / deadzone=21,11 / fast_pskip=0 / chroma_qp_offset=-2 / threads=18 / lookahead_threads=4 / sliced_threads=0 / nr=0 / decimate=0 / interlaced=0 / bluray_compat=0 / constrained_intra=0 / bframes=16 / b_pyramid=2 / b_adapt=2 / b_bias=0 / direct=3 / weightb=1 / open_gop=0 / weightp=2 / keyint=240 / keyint_min=24 / scenecut=40 / intra_refresh=0 / rc_lookahead=60 / rc=crf / mbtree=0 / crf=16.8 / qcomp=0.60 / qpmin=0 / qpmax=69 / qpstep=4 / vbv_maxrate=62500 / vbv_bufsize=78125 / crf_max=0.0 / nal_hrd=none / filler=0 / ip_ratio=1.40 / pb_ratio=1.30 / aq=2:1.00
Default : Yes
Forced : No
Color range : Limited
Color primaries : BT.709
Transfer characteristics : BT.709
Matrix coefficients : BT.709

Audio
ID : 2
Format : AC-3
Format/Info : Audio Coding 3
Commercial name : Dolby Digital
Codec ID : A_AC3
Duration : 1 h 38 min
Bit rate mode : Constant
Bit rate : 640 kb/s
Channel(s) : 6 channels
Channel layout : L R C LFE Ls Rs
Sampling rate : 48.0 kHz
Frame rate : 31.250 FPS (1536 SPF)
Compression mode : Lossy
Stream size : 450 MiB (5%)
Language : French
Service kind : Complete Main
Default : Yes
Forced : No

Text #1
ID : 3
Format : UTF-8
Codec ID : S_TEXT/UTF8
Codec ID/Info : UTF-8 Plain Text
Duration : 1 h 33 min
Bit rate : 56 b/s
Count of elements : 1483
Stream size : 38.9 KiB (0%)
Language : English
Default : Yes
Forced : No

Text #2
ID : 4
Format : PGS
Muxing mode : zlib
Codec ID : S_HDMV/PGS
Codec ID/Info : Picture based subtitle format used on BDs/HD-DVDs
Duration : 1 h 38 min
Bit rate : 33.1 kb/s
Count of elements : 3157
Stream size : 23.3 MiB (0%)
Language : French
Default : No
Forced : No

Menu
00:00:00.000 : :Chapter 1
00:09:36.250 : :Chapter 2
00:17:54.542 : :Chapter 3
00:25:24.375 : :Chapter 4
00:37:29.958 : :Chapter 5
00:50:21.125 : :Chapter 6
01:01:28.708 : :Chapter 7
01:12:30.500 : :Chapter 8
01:25:39.750 : :Chapter 9
01:34:17.250 : :Chapter 10






Its.Complicated.2014.FRENCH.1080p.BluRay.x264.DD5.1-HANDJOB.torrent
还没有人收藏过本帖~
最新回复 (1)
  • ▆▇✅▇▆ 最新看黃魸【 8ccd.xyz 】ㄖ韓、歐羙、啯产、黑咝、偸啪【 8ccd.xyz 】手机浏览噐打开【 8ccd.xyz 】搜罕见稀有绝版资源 ▆▇✅▇▆ 咨走滓
    5小时前 回复
返回
发新帖
即将对游客闭站,请注册账号备用!
影音屋为您提供最新的720P、1080P、2K、4K、原盘高清电影下载,内部交流社区,欢迎体验。影音屋,更多好电影待您发现!
加入福利电报群 加入福利企鹅群 淘宝天猫漏洞单