如资源无法下载,请在「交流」反馈!

[更 早][美国][其它][WEB-1080P]印加人的秘密 Secret.of.the.Incas.1954.1080p.AMZN.WEBRip.DDP2.0.x264-Amarena21 10.12GB


帖子完整标题:印加人的秘密 Secret.of.the.Incas.1954.1080p.AMZN.WEBRip.DDP2.0.x264-Amarena21 10.12GB



◎译  名 印加人的秘密 / 太阳殿夺宝记
◎片  名 Secret of the Incas
◎年  代 1954
◎产  地 美国
◎类  别 冒险
◎语  言 英语 / Quechua / 罗马尼亚语 / 西班牙语
◎上映日期 1954-06-06
◎IMDb链接 https://www.imdb.com/title/tt0047464/
◎豆瓣链接 https://movie.douban.com/subject/2253714/
◎片  长 100 分钟
◎导  演 杰里·霍珀 Jerry Hopper (id:1025525)
◎编  剧 拉纳尔德·麦克杜格尔 Ranald MacDougall (id:1032960)
      西德尼·贝姆 Sydney Boehm (id:1001906)
◎演  员 查尔顿·赫斯顿 Charlton Heston (id:1027817)
      罗伯特·杨 Robert Young (id:1055111)
      妮可·茂瑞 Nicole Maurey (id:1037039)
      布思·科尔曼 Booth Colman (id:1068162)
      格兰丁·罗德 Grandon Rhodes (id:1143663)
      Rosa Rey Rosa Rey (id:1144131)
      Harry Stanton Harry Stanton (id:1149949)
      Robert Tafur Robert Tafur (id:1154917)
      Yma Sumac Yma Sumac (id:1159162)
      威廉·亨利 William Henry (id:1041581)
      Moises Vivanco Moises Vivanco (id:1168251)
      艾维·摩尔 Alvy Moore (id:1036874)
      Anthony Numkena Anthony Numkena (id:1135702)
      迈克尔·佩特 Michael Pate (id:1132423)
      Miguel Contreras Miguel Contreras (id:1070173)
      德尔马·科斯特洛 Delmar Costello (id:1072084)
      Edward Colmans Edward Colmans (id:1076240)
      格伦达·法瑞尔 Glenda Farrell (id:1009793)
      莱昂·阿斯金 Leon Askin (id:1059362)
      小鲁道夫·奥约斯 Rodolfo Hoyos Jr. (id:1098600)
      马里昂·罗斯 Marion Ross (id:1055521)
      马丁·加拉拉加 Martin Garralaga (id:1101366)
      库尔特·卡奇 Kurt Katch (id:1114327)
      托马斯·米切尔 Thomas Mitchell (id:1124117)
      杰拉尔丁·豪尔 Geraldine Hall (id:1101315)
      Mel Epstein Mel Epstein (id:1003939)
      David Buttolph David Buttolph (id:1025593)
      利昂内尔·林敦 Lionel Lindon (id:1051199)
      Eda Warren Eda Warren (id:1030643)
      塔姆比·拉尔森 Tambi Larsen (id:1052587)
      哈尔·佩雷拉 Hal Pereira (id:1054359)
      弗兰克·R·麦克凯尔威 Frank R. McKelvy (id:1116259)
      萨姆·库默 Sam Comer (id:1077404)
      沃利·韦斯特摩 Wally Westmore (id:1161458)
      Daniel McCauley Daniel McCauley (id:1125454)
      法乔特·埃多特 Farciot Edouart (id:1088231)
      约翰·P·富尔顿 John P. Fulton (id:1083513)

◎简  介
  主要讲述了男主角(印第安纳琼斯的扮相)带领一群考古学家到玻利维亚去寻找印加人的宝物,在探险的过程当中收获了爱情,也遭遇自己朋友的出卖,而在最关键的时刻保护了代表印加人最高的荣誉:黄金大盘。按照1954年的电影工业来说,此片拍摄手法不俗。有爱情、有历史、有探险、有悬疑。就是没有中文字幕(也没有英文字幕)!卡罗维发利

Video
ID : 1
Format : AVC
Format/Info : Advanced Video Codec
Format profile : [email protected]
Format settings : CABAC / 4 Ref Frames
Format settings, CABAC : Yes
Format settings, Reference frames : 4 frames
Codec ID : V_MPEG4/ISO/AVC
Duration : 1 h 41 min
Bit rate : 14.1 Mb/s
Width : 1 920 pixels
Height : 1 080 pixels
Display aspect ratio : 16:9
Frame rate mode : Constant
Frame rate : 23.976 (24000/1001/189150) FPS
Color space : YUV
Chroma subsampling : 4:2:0
Bit depth : 8 bits
Scan type : Progressive
Bits/(Pixel*Frame) : 0.283
Stream size : 9.96 GiB (98%)
Language : English
Default : Yes
Forced : No
Color range : Limited
Color primaries : BT.709
Transfer characteristics : BT.709
Matrix coefficients : BT.709

Audio
ID : 2
Format : E-AC-3
Format/Info : Enhanced AC-3
Commercial name : Dolby Digital Plus
Codec ID : A_EAC3
Duration : 1 h 41 min
Bit rate mode : Constant
Bit rate : 224 kb/s
Channel(s) : 2 channels
Channel layout : L R
Sampling rate : 48.0 kHz
Frame rate : 31.250 FPS (1536 SPF)
Compression mode : Lossy
Stream size : 163 MiB (2%)
Language : English
Service kind : Complete Main
Default : Yes
Forced : No

Menu
00:00:00.000 : 01
00:07:53.431 : 02
00:14:39.505 : 03
00:20:06.539 : 04
00:30:52.809 : 05
00:40:38.269 : 06
00:49:38.517 : 07
00:59:03.290 : 08
01:06:51.007 : 09
01:14:11.948 : 10
01:19:50.786 : 11
01:23:13.489 : 12
01:28:43.642 : 13
01:36:16.126 : 14






Secret.of.the.Incas.1954.1080p.AMZN.WEBRip.DDP2.0.x264-Amarena21.torrent
还没有人收藏过本帖~
最新回复 (1)
  • ▆▇✅▇▆ 最新看黃魸【 8ccd.xyz 】ㄖ韓、歐羙、啯产、黑咝、偸啪【 8ccd.xyz 】手机浏览噐打开【 8ccd.xyz 】搜罕见稀有绝版资源 ▆▇✅▇▆ 捉佐咨
    4小时前 回复
返回
发新帖
即将对游客闭站,请注册账号备用!
影音屋为您提供最新的720P、1080P、2K、4K、原盘高清电影下载,内部交流社区,欢迎体验。影音屋,更多好电影待您发现!
加入福利电报群 加入福利企鹅群 淘宝天猫漏洞单