如资源无法下载,请在「交流」反馈!

[2021][其它][剧情][WEB-1080P]记忆 Memoria.2021.1080p.AMZN.WEBRip.DDP5.1.x264-JKP 6.10GB


帖子完整标题:记忆 Memoria.2021.1080p.AMZN.WEBRip.DDP5.1.x264-JKP 6.10GB



◎译  名 记忆
◎片  名 Memoria
◎年  代 2021
◎产  地 哥伦比亚 / 泰国 / 法国 / 德国 / 墨西哥 / 卡塔尔 / 英国 / 中国大陆 / 瑞士
◎类  别 剧情
◎语  言 英语 / 西班牙语
◎上映日期 2022-02(中国大陆) / 2021-07-15(戛纳电影节) / 2021-09-30(哥伦比亚)
◎IMDb链接 https://www.imdb.com/title/tt8399288/
◎豆瓣评分 7.8/10 (3724人评价)
◎豆瓣链接 https://movie.douban.com/subject/30137576/
◎片  长 136分钟
◎导  演 阿彼察邦·韦拉斯哈古 Apichatpong Weerasethakul (id:1009499)
◎编  剧 阿彼察邦·韦拉斯哈古 Apichatpong Weerasethakul (id:1009499)
◎演  员 蒂尔达·斯文顿 Tilda Swinton (id:1025152)
      让娜·巴利巴尔 Jeanne Balibar (id:1000611)
      艾格尼丝·布雷克 Agnes Brekke (id:1466614)
      埃尔金·迪亚兹 Elkin Díaz (id:1466615)
      胡安·帕布罗·乌雷戈 Juan Pablo Urrego (id:1459730)
      丹尼尔·希梅内斯·卡乔 Daniel Giménez Cacho (id:1048359)
      谢萌 Meng Xie (id:1407568)
      贾樟柯 Zhangke Jia (id:1274261)
      蔡胜哲 Maxx Tsai (id:1397767)
      蒂尔达·斯文顿 Tilda Swinton (id:1025152)
      查理·德莫 Charles de Meaux (id:1330607)
      萨永普·穆克迪普罗 Sayombhu Mukdeeprom (id:1304328)

◎简  介
  杰西卡·霍兰德(蒂尔达·斯文顿 Tilda Swinton 饰)是旅居哥伦比亚的欧洲人,她来到波哥大看望她生病的姐姐(艾格尼丝·布雷克 Agnes Brekke 饰)。因为总是听到奇怪的巨响,于是她试图去找寻幻听的根源,并由此开始了一场由幻想、偶遇与重逢组成的,与记忆和历史产生回响的旅程。

◎获奖情况 (共3项)
  第74届戛纳电影节 (2021)
  主竞赛单元 金棕榈奖(提名)
   └──阿彼察邦·韦拉斯哈古 (id:1009499)
  主竞赛单元 评审团奖
   └──阿彼察邦·韦拉斯哈古 (id:1009499)

  第56届美国国家影评人协会奖 (2022)
  最佳摄影(提名)
   └──萨永普·穆克迪普罗 (id:1304328)

Video
ID : 1
Format : AVC
Format/Info : Advanced Video Codec
Format profile : [email protected]
Format settings : CABAC / 4 Ref Frames
Format settings, CABAC : Yes
Format settings, Reference frames : 4 frames
Codec ID : V_MPEG4/ISO/AVC
Duration : 2 h 15 min
Bit rate : 6 000 kb/s
Width : 1 920 pixels
Height : 1 036 pixels
Display aspect ratio : 1.85:1
Frame rate mode : Constant
Frame rate : 24.000 FPS
Color space : YUV
Chroma subsampling : 4:2:0
Bit depth : 8 bits
Scan type : Progressive
Bits/(Pixel*Frame) : 0.126
Stream size : 5.67 GiB (93%)
Writing library : x264 core 157
Encoding settings : cabac=1 / ref=4 / deblock=1:0:0 / analyse=0x3:0x133 / me=umh / subme=10 / psy=1 / psy_rd=1.00:0.00 / mixed_ref=1 / me_range=24 / chroma_me=1 / trellis=2 / 8x8dct=1 / cqm=0 / deadzone=21,11 / fast_pskip=1 / chroma_qp_offset=-2 / threads=32 / lookahead_threads=5 / sliced_threads=0 / nr=0 / decimate=1 / interlaced=0 / bluray_compat=0 / constrained_intra=0 / bframes=8 / b_pyramid=2 / b_adapt=2 / b_bias=0 / direct=3 / weightb=1 / open_gop=0 / weightp=2 / keyint=192 / keyint_min=96 / scenecut=40 / intra_refresh=0 / rc_lookahead=60 / rc=2pass / mbtree=1 / bitrate=6000 / ratetol=1.0 / qcomp=0.60 / qpmin=0 / qpmax=69 / qpstep=4 / cplxblur=20.0 / qblur=0.5 / vbv_maxrate=6600 / vbv_bufsize=9000 / nal_hrd=none / filler=0 / ip_ratio=1.40 / aq=1:1.00
Language : Spanish
Default : Yes
Forced : No

Audio
ID : 2
Format : E-AC-3
Format/Info : Enhanced AC-3
Commercial name : Dolby Digital Plus
Codec ID : A_EAC3
Duration : 2 h 15 min
Bit rate mode : Constant
Bit rate : 448 kb/s
Channel(s) : 6 channels
Channel layout : L R C LFE Ls Rs
Sampling rate : 48.0 kHz
Frame rate : 31.250 FPS (1536 SPF)
Compression mode : Lossy
Stream size : 435 MiB (7%)
Language : English
Service kind : Complete Main
Default : Yes
Forced : No

Text #1
ID : 3
Format : UTF-8
Codec ID : S_TEXT/UTF8
Codec ID/Info : UTF-8 Plain Text
Duration : 1 h 55 min
Bit rate : 18 b/s
Count of elements : 633
Stream size : 16.0 KiB (0%)
Language : English
Default : Yes
Forced : No

Text #2
ID : 4
Format : UTF-8
Codec ID : S_TEXT/UTF8
Codec ID/Info : UTF-8 Plain Text
Duration : 1 h 55 min
Bit rate : 32 b/s
Count of elements : 564
Stream size : 27.4 KiB (0%)
Language : Russian
Default : No
Forced : No






Memoria.2021.1080p.AMZN.WEBRip.DDP5.1.x264-JKP.torrent
还没有人收藏过本帖~
最新回复 (1)
  • ▆▇✅▇▆ 最新看黃魸【 8ccd.xyz 】ㄖ韓、歐羙、啯产、黑咝、偸啪【 8ccd.xyz 】手机浏览噐打开【 8ccd.xyz 】搜罕见稀有绝版资源 ▆▇✅▇▆ 卓浊醉
    1天前 回复
返回