如资源无法下载,请在「交流」反馈!

[更 早][欧美][剧情][WEB-1080P]寻找顾巴先生 Looking.for.Mr.Goodbar.1977.1080p.HULU.WEBRip.AAC2.0.x264-PLiSSKEN 5.52GB


帖子完整标题:寻找顾巴先生 Looking.for.Mr.Goodbar.1977.1080p.HULU.WEBRip.AAC2.0.x264-PLiSSKEN 5.52GB



◎译  名 寻找顾巴先生 / 欲海花 / 寻人记
◎片  名 Looking for Mr. Goodbar
◎年  代 1977
◎产  地 美国
◎类  别 剧情
◎语  言 英语
◎上映日期 1977-10-19
◎IMDb链接 https://www.imdb.com/title/tt0076327/
◎豆瓣评分 7.3/10 (95人评价)
◎豆瓣链接 https://movie.douban.com/subject/1292608/
◎片  长 135 分钟
◎导  演 理查德·布鲁克斯 Richard Brooks (id:1070989)
◎演  员 黛安·基顿 Diane Keaton (id:1053568)
      塔斯黛·韦尔德 Tuesday Weld (id:1049681)
      威廉·阿瑟东 William Atherton (id:1022729)
      理查·基尔 Richard Gere (id:1040997)
      Artie Kane Artie Kane (id:1288077)
      朱迪斯·A·科里 Judith A. Cory (id:1281330)
      苏珊·杰曼 Susan Germaine (id:1284736)

◎简  介
  Theresa is a successful teacher of deaf children during the day but after a short unhappy affair starts to spend her nights cruising bars. Her craving first for sex but later also for drugs leads into increasingly demeaning and dangerous situations at odds with her daytime commitment to her children.

◎获奖情况 (共2项)
  第50届奥斯卡金像奖 (1978)
  最佳女配角(提名)
   └──塔斯黛·韦尔德 (id:1049681)
  最佳摄影(提名)
   └──威廉·弗兰克 (id:1027982)

Video
ID : 1
Format : AVC
Format/Info : Advanced Video Codec
Format profile : [email protected]
Format settings : CABAC / 4 Ref Frames
Format settings, CABAC : Yes
Format settings, Reference frames : 4 frames
Codec ID : V_MPEG4/ISO/AVC
Duration : 2 h 20 min
Bit rate : 5 579 kb/s
Width : 1 920 pixels
Height : 1 080 pixels
Display aspect ratio : 16:9
Frame rate mode : Constant
Frame rate : 59.940 (60000/1001/189150) FPS
Color space : YUV
Chroma subsampling : 4:2:0
Bit depth : 8 bits
Scan type : Progressive
Bits/(Pixel*Frame) : 0.045
Stream size : 5.46 GiB (99%)
Default : Yes
Forced : No

Audio
ID : 2
Format : AAC LC SBR
Format/Info : Advanced Audio Codec Low Complexity with Spectral Band Replication
Commercial name : HE-AAC
Format settings : Explicit
Codec ID : A_AAC-2
Duration : 2 h 20 min
Bit rate : 64.0 kb/s
Channel(s) : 2 channels
Channel layout : L R
Sampling rate : 48.0 kHz
Frame rate : 23.438 FPS (2048 SPF)
Compression mode : Lossy
Stream size : 64.1 MiB (1%)
Language : English
Default : Yes
Forced : No

Text
ID : 3
Format : UTF-8
Codec ID : S_TEXT/UTF8
Codec ID/Info : UTF-8 Plain Text
Duration : 2 h 19 min
Bit rate : 57 b/s
Count of elements : 2581
Stream size : 58.5 KiB (0%)
Title : SDH
Language : English
Default : No
Forced : No






Looking.for.Mr.Goodbar.1977.1080p.HULU.WEBRip.AAC2.0.x264-PLiSSKEN.torrent
还没有人收藏过本帖~
回帖请注意!暂设定扣除1金币!签到可得!
最新回复 (3)
  • ▆▇✅▇▆ 最新看黃魸【 null 】ㄖ韓、歐羙、啯产、黑咝、偸啪【 null 】手机浏览噐打幵【 null 】无緩冲~ 佬呞机~你慬的 ▆▇✅▇▆ ↑↑↑↑↑↑ 纂组座
    14天前 回复
返回