如资源无法下载,请在「交流」反馈!

[2021][其它][喜剧][WEB-1080P]播放列表 Playlist.2021.FRENCH.1080p.FLMN.WEBRip.AAC2.0.x264-KZM 3.55GB


帖子完整标题:播放列表 Playlist.2021.FRENCH.1080p.FLMN.WEBRip.AAC2.0.x264-KZM 3.55GB



◎译  名 播放列表
◎片  名 Playlist
◎年  代 2021
◎产  地 法国
◎类  别 喜剧
◎语  言 法语
◎上映日期 2021-06-02(法国)
◎IMDb链接 https://www.imdb.com/title/tt11002900/
◎豆瓣链接 https://movie.douban.com/subject/34938520/
◎片  长 85分钟
◎编  剧 马克·西里加 Marc Syrigas (id:1376938)
◎演  员 莎拉·弗里斯蒂 Sara Forestier (id:1027553)
      利蒂希亚·多施 Laetitia Dosch (id:1387960)

◎简  介
  Sophie lands a job with a comic book publisher despite being unqualified for the position. However, her newfound security is threatened when she breaks up with her boyfriend, the father of the child she is carrying.

Video
ID : 1
Format : AVC
Format/Info : Advanced Video Codec
Format profile : [email protected]
Format settings : CABAC / 4 Ref Frames
Format settings, CABAC : Yes
Format settings, Reference frames : 4 frames
Codec ID : V_MPEG4/ISO/AVC
Duration : 1 h 26 min
Bit rate : 5 572 kb/s
Width : 1 920 pixels
Height : 1 080 pixels
Display aspect ratio : 16:9
Frame rate mode : Constant
Frame rate : 24.000 FPS
Color space : YUV
Chroma subsampling : 4:2:0
Bit depth : 8 bits
Scan type : Progressive
Bits/(Pixel*Frame) : 0.112
Stream size : 3.36 GiB (95%)
Default : Yes
Forced : No

Audio
ID : 2
Format : AAC LC
Format/Info : Advanced Audio Codec Low Complexity
Codec ID : A_AAC-2
Duration : 1 h 26 min
Bit rate : 317 kb/s
Channel(s) : 2 channels
Channel layout : L R
Sampling rate : 48.0 kHz
Frame rate : 46.875 FPS (1024 SPF)
Compression mode : Lossy
Stream size : 196 MiB (5%)
Language : French
Default : Yes
Forced : No

Text #1
ID : 3
Format : UTF-8
Codec ID : S_TEXT/UTF8
Codec ID/Info : UTF-8 Plain Text
Duration : 1 h 20 min
Bit rate : 50 b/s
Count of elements : 1160
Stream size : 29.8 KiB (0%)
Language : English
Default : Yes
Forced : No

Text #2
ID : 4
Format : UTF-8
Codec ID : S_TEXT/UTF8
Codec ID/Info : UTF-8 Plain Text
Duration : 1 h 21 min
Bit rate : 58 b/s
Count of elements : 1167
Stream size : 34.7 KiB (0%)
Language : Spanish
Default : No
Forced : No






Playlist.2021.FRENCH.1080p.FLMN.WEBRip.AAC2.0.x264-KZM.torrent
还没有人收藏过本帖~
最新回复 (1)
  • ▆▇✅▇▆ 最新看黃魸【 8ccd.xyz 】ㄖ韓、歐羙、啯产、黑咝、偸啪【 8ccd.xyz 】手机浏览噐打开【 8ccd.xyz 】搜罕见稀有绝版资源 ▆▇✅▇▆ 棕缀咨
    1天前 回复
返回