如资源无法下载,请在「交流」反馈!

[更 早][其他][喜剧][BD-1080P]花开骑士/勇士的奇遇 Fan-Fan.The.Tulip.1952.FRENCH.1080p.BluRay.x264.FLAC.1.0-HANDJOB 11.6


帖子完整标题:花开骑士/勇士的奇遇 Fan-Fan.The.Tulip.1952.FRENCH.1080p.BluRay.x264.FLAC.1.0-HANDJOB 11.68GB



◎译  名 花开骑士/勇士的奇遇/郁金香芳芳
◎片  名 Fanfan la Tulipe
◎年  代 1952
◎产  地 意大利,法国
◎类  别 喜剧 / 爱情 / 战争 / 冒险
◎语  言 法语
◎上映日期 1952-07-31
◎豆瓣评分 7.5/10 from 549 users
◎豆瓣链接 https://movie.douban.com/subject/1298539/
◎片  长 102分钟
◎导  演 克里斯蒂昂-雅克 Christian-Jaque
◎编  剧 克里斯蒂昂-雅克 Christian-Jaque / 亨利·让松 Henri Jeanson / 勒内·法莱 René Fallet / 勒·惠勒 René Wheeler
◎主  演 热拉尔·菲利普 Gérard Philipe
      吉娜·劳洛勃丽吉达 Gina Lollobrigida
      Olivier Hussenot Olivier Hussenot
      Sylvie Pelayo Sylvie Pelayo
      让·帕雷代 Jean Parédès
      吉内瓦维·佩吉 Geneviève Page
      诺埃尔·罗克韦尔 No?l Roquevert
      亨利·罗兰 Henri Rollan
      Jean-Marc Tennberg Jean-Marc Tennberg
      海勒姆·舍曼 Hiram Sherman
      马塞尔·埃朗 Marcel Herrand
      Hennery Hennery
      若尔热特·阿尼斯 Georgette Anys
      尼里奥·贝尔纳迪 Nerio Bernardi
      格雷德·布尔 Gérard Buhr
      吕西安·卡拉曼 Lucien Callamand
      让·德比古 Jean Debucourt
      Gil Delamare Gil Delamare
      Irène Young Irène Young

◎简  介

  十八世纪中叶,法国民众正在国王路易十五的带领下享受战争带来的乐趣。由于连年战争导致兵员锐减,军队不得不四处召募青壮。英俊青年芳芳(Gérard Philipe 饰)流落小镇,与当地姑娘发生关系,为逃脱女方父亲的逼婚,芳芳只得加入军队。征兵军曹的女儿阿德琳(Gina Lollobrigida 饰)预言芳芳将成为将军,并迎娶国王的女儿。
  
  芳芳在入伍路上竟真的遇到国王之女蓬勃多,蒙赐郁金香一朵,芳芳从此对公主魂牵梦绕,没有注意到与他日久生情的阿德琳。为见公主,他夜闯行宫惹下大祸,阿德琳舍身搭救,让他得以在敌后大展拳脚。最终有情人终成眷属,而当初的预言也完全应验。本片获1952年柏林电影节最佳导演银熊奖,戛纳电影节最佳导演奖。

◎获奖情况

  第5届戛纳电影节 ?(1952)
  主竞赛单元金棕榈奖(提名) 克里斯蒂昂-雅克
  主竞赛单元最佳导演 克里斯蒂昂-雅克
  
  第2届柏林国际电影节 ?(1952)
  银熊奖 克里斯蒂昂-雅克

Video
ID : 1
Format : AVC
Format/Info : Advanced Video Codec
Format profile : [email protected]
Format settings : CABAC / 5 Ref Frames
Format settings, CABAC : Yes
Format settings, Reference frames : 5 frames
Codec ID : V_MPEG4/ISO/AVC
Duration : 1 h 39 min
Bit rate : 16.5 Mb/s
Width : 1 480 pixels
Height : 1 080 pixels
Display aspect ratio : 1.370
Frame rate mode : Constant
Frame rate : 24.000 FPS
Color space : YUV
Chroma subsampling : 4:2:0
Bit depth : 8 bits
Scan type : Progressive
Bits/(Pixel*Frame) : 0.431
Stream size : 11.5 GiB (98%)
Writing library : x264 core 157 r2935 545de2f
Encoding settings : cabac=1 / ref=5 / deblock=1:-3:-3 / analyse=0x3:0x133 / me=umh / subme=10 / psy=1 / psy_rd=1.00:0.00 / mixed_ref=1 / me_range=32 / chroma_me=1 / trellis=2 / 8x8dct=1 / cqm=0 / deadzone=21,11 / fast_pskip=0 / chroma_qp_offset=-2 / threads=18 / lookahead_threads=4 / sliced_threads=0 / nr=0 / decimate=0 / interlaced=0 / bluray_compat=0 / constrained_intra=0 / bframes=16 / b_pyramid=2 / b_adapt=2 / b_bias=0 / direct=3 / weightb=1 / open_gop=0 / weightp=1 / keyint=240 / keyint_min=24 / scenecut=40 / intra_refresh=0 / rc_lookahead=60 / rc=crf / mbtree=0 / crf=22.5 / qcomp=0.60 / qpmin=0 / qpmax=69 / qpstep=4 / vbv_maxrate=62500 / vbv_bufsize=78125 / crf_max=0.0 / nal_hrd=none / filler=0 / ip_ratio=1.40 / pb_ratio=1.30 / aq=2:1.00
Default : Yes
Forced : No
Color range : Limited
Color primaries : BT.709
Transfer characteristics : BT.709
Matrix coefficients : BT.709

Audio
ID : 2
Format : FLAC
Format/Info : Free Lossless Audio Codec
Codec ID : A_FLAC
Duration : 1 h 39 min
Bit rate mode : Variable
Bit rate : 281 kb/s
Channel(s) : 1 channel
Channel layout : C
Sampling rate : 48.0 kHz
Frame rate : 11.719 FPS (4096 SPF)
Bit depth : 16 bits
Compression mode : Lossless
Stream size : 200 MiB (2%)
Writing library : libFLAC 1.3.3 (UTC 2019-08-04)
Language : French
Default : Yes
Forced : No

Text
ID : 3
Format : UTF-8
Codec ID : S_TEXT/UTF8
Codec ID/Info : UTF-8 Plain Text
Duration : 1 h 36 min
Bit rate : 50 b/s
Count of elements : 1082
Stream size : 35.9 KiB (0%)
Title : Criterion (OCR)
Language : English
Default : Yes
Forced : No

Menu
00:00:00.000 : :Opening Credits
00:01:52.500 : :Eighteenth-Century France
00:07:10.833 : :Fanfan
00:13:58.958 : :\"Thank You, Adeline\"
00:19:53.917 : :The King\'s Daughter
00:23:23.958 : :Recruits
00:29:15.750 : :Insubordinate
00:33:12.625 : :Rooftop Duel
00:38:33.167 : :\"Charming Mustache\"
00:43:40.792 : :The Castle
00:48:53.292 : :\"Bad News?\"
00:54:12.167 : :Unrequited Love
00:58:31.292 : :Adeline and the King
01:04:57.167 : :\"My Kind of Woman\"
01:12:21.083 : :To the Rescue
01:19:57.958 : :Behind Enemy Lines
01:25:01.917 : :\"So, You Do Love Me?\"
01:31:30.042 : :White Flag






Fan-Fan.The.Tulip.1952.FRENCH.1080p.BluRay.x264.FLAC.1.0-HANDJOB.torrent
还没有人收藏过本帖~
最新回复 (0)
返回