如资源无法下载,请在「交流」反馈!

[2010][日本][剧情][BD-720P]花水木 Hanamizuki.2010.720p.BluRay.x264-YAMG 5.32GB


帖子完整标题:花水木 Hanamizuki.2010.720p.BluRay.x264-YAMG 5.32GB



◎译  名 花水木/Hanamizuki/花水木:依然想着你(台)
◎片  名 ハナミズキ
◎年  代 2010
◎产  地 日本
◎类  别 剧情 / 爱情
◎语  言 日语
◎上映日期 2010-08-21(日本)
◎豆瓣评分 7.2/10 from 52018 users
◎豆瓣链接 https://movie.douban.com/subject/4074009/
◎片  长 128分钟
◎导  演 土井裕泰 Nobuhiro Doi
◎编  剧 吉田纪子 Noriko Yoshida
◎主  演 新垣结衣 Yui Aragaki
      生田斗真 T?ma Ikuta
      向井理 Osamu Mukai
      药师丸博子 Hiroko Yakushimaru
      莲佛美沙子 Misako Renbutsu
      森实咲 Misaki Mori
      德永绘里 Eri Tokunaga
      大高洋夫 Hiroo ?taka
      木村佑一 Y?ichi Kimura
      小柳友 Y? Koyanagi
      井浦新 ARATA
      松重丰 Yutaka Matsushige

◎简  介

  1996年,北海道道东。因一次不容错过的考试,美丽的女孩平泽纱枝(新垣结衣 饰)邂逅了阳光爽朗的男孩木内康平(生田斗真 饰)。不过这次相逢并不顺利,康平因驾驶汽车出了车祸延误了纱枝的考试,自己也被学校责令退学。糟糕的开始并非有一个糟糕的结局,康平与纱枝由此相知相恋,结为情侣。随着毕业的临近,他们的感情也面临着考验。康平继承家业,成为一名与大海搏斗的渔夫,纱枝则经过艰辛的备战,考上了东京的名府早稻田大学,时间和空间成为他们之间最大的障碍。在此期间,康平的家面临破产,生计举步维艰。纱枝也在求职的道路上不断受挫。两人的恋情似乎慢慢走向了消亡……
  
  本片创意来自根据一青窈的同名歌曲。

Video
ID : 1
Format : AVC
Format/Info : Advanced Video Codec
Format profile : [email protected]
Format settings : CABAC / 9 Ref Frames
Format settings, CABAC : Yes
Format settings, Reference frames : 9 frames
Codec ID : V_MPEG4/ISO/AVC
Duration : 2 h 8 min
Bit rate : 5 258 kb/s
Width : 1 280 pixels
Height : 692 pixels
Display aspect ratio : 1.85:1
Frame rate mode : Constant
Frame rate : 23.976 (24000/1001/189150) FPS
Color space : YUV
Chroma subsampling : 4:2:0
Bit depth : 8 bits
Scan type : Progressive
Bits/(Pixel*Frame) : 0.248
Stream size : 4.73 GiB (89%)
Writing library : x264 core 164 r3075 66a5bc1
Encoding settings : cabac=1 / ref=9 / deblock=1:-3:-3 / analyse=0x3:0x133 / me=umh / subme=10 / psy=1 / psy_rd=1.00:0.00 / mixed_ref=1 / me_range=32 / chroma_me=1 / trellis=2 / 8x8dct=1 / cqm=0 / deadzone=21,11 / fast_pskip=0 / chroma_qp_offset=-2 / threads=22 / lookahead_threads=3 / sliced_threads=0 / nr=0 / decimate=0 / interlaced=0 / bluray_compat=0 / constrained_intra=0 / bframes=8 / b_pyramid=2 / b_adapt=2 / b_bias=0 / direct=3 / weightb=1 / open_gop=0 / weightp=2 / keyint=250 / keyint_min=23 / scenecut=40 / intra_refresh=0 / rc=crf / mbtree=0 / crf=17.0 / qcomp=0.60 / qpmin=0 / qpmax=69 / qpstep=4 / ip_ratio=1.40 / pb_ratio=1.30 / aq=3:0.60
Language : English
Default : Yes
Forced : No
Color range : Limited
Matrix coefficients : BT.709

Audio
ID : 2
Format : AC-3
Format/Info : Audio Coding 3
Commercial name : Dolby Digital
Codec ID : A_AC3
Duration : 2 h 8 min
Bit rate mode : Constant
Bit rate : 640 kb/s
Channel(s) : 6 channels
Channel layout : L R C LFE Ls Rs
Sampling rate : 48.0 kHz
Frame rate : 31.250 FPS (1536 SPF)
Compression mode : Lossy
Stream size : 589 MiB (11%)
Title : Japanese
Language : Japanese
Service kind : Complete Main
Default : Yes
Forced : No

Text #1
ID : 3
Format : UTF-8
Codec ID : S_TEXT/UTF8
Codec ID/Info : UTF-8 Plain Text
Duration : 2 h 8 min
Bit rate : 27 b/s
Count of elements : 1207
Stream size : 25.5 KiB (0%)
Title : English Forced
Language : English
Default : Yes
Forced : Yes

Text #2
ID : 4
Format : PGS
Muxing mode : zlib
Codec ID : S_HDMV/PGS
Codec ID/Info : Picture based subtitle format used on BDs/HD-DVDs
Duration : 2 h 8 min
Bit rate : 21.5 kb/s
Count of elements : 2435
Stream size : 19.7 MiB (0%)
Title : English Forced PGS
Language : English
Default : No
Forced : No

Text #3
ID : 5
Format : PGS
Muxing mode : zlib
Codec ID : S_HDMV/PGS
Codec ID/Info : Picture based subtitle format used on BDs/HD-DVDs
Duration : 2 h 8 min
Bit rate : 25.1 kb/s
Count of elements : 2435
Stream size : 23.0 MiB (0%)
Title : Traditional Chinese PGS
Language : Chinese
Default : No
Forced : No

Menu
00:00:00.000 : en:Chapter 01
00:10:21.254 : en:Chapter 02
00:24:12.751 : en:Chapter 03
00:35:35.133 : en:Chapter 04
00:46:22.446 : en:Chapter 05
00:58:43.687 : en:Chapter 06
01:13:57.400 : en:Chapter 07
01:23:34.643 : en:Chapter 08
01:33:00.074 : en:Chapter 09
01:43:17.191 : en:Chapter 10
01:52:28.075 : en:Chapter 11
01:59:39.172 : en:Chapter 12






Hanamizuki.2010.720p.BluRay.x264-YAMG.torrent
还没有人收藏过本帖~
最新回复 (0)
返回