如资源无法下载,请在「交流」反馈!

[更 早][其他][其他][BD-1080P]异魔禁区/达贡 Dagon.2001.iNTERNAL.1080p.BluRay.x264-PEGASUS 10.97GB


帖子完整标题:异魔禁区/达贡 Dagon.2001.iNTERNAL.1080p.BluRay.x264-PEGASUS 10.97GB



◎译  名 异魔禁区/达贡
◎片  名 Dagon
◎年  代 2001
◎产  地 西班牙
◎类  别 悬疑 / 惊悚 / 恐怖 / 奇幻
◎语  言 英语,Galician,西班牙语
◎上映日期 2001-10-31
◎豆瓣评分 6.9/10 from 4620 users
◎豆瓣链接 https://movie.douban.com/subject/1695241/
◎片  长 95 分钟
◎导  演 斯图尔特·戈登 Stuart Gordon
◎编  剧 H·P·洛夫克拉夫特 H.P. Lovecraft
◎主  演 玛卡蕾娜·戈麦斯 Macarena Gómez
      弗兰·拉奥斯 Ferran Lahoz
      Joan Manel Vadell Joan Manel Vadell
      阿尔弗雷多·维拉 Alfredo Villa
      José Lifante José Lifante
      Raquel Mero?o Raquel Mero?o
      弗朗西斯科·拉瓦尔 Francisco Rabal
      伊斯拉·戈登 Ezra Godden

◎标  签 恐怖 | 克苏鲁 | 惊悚 | 西班牙 | 魔幻 | 奇幻 | 怪异 | 宗教

◎简  介

  过度执迷工作以致神经衰弱的保罗(Ezra Godden 饰)经常为一个恐怖美人鱼的噩梦所困扰,为缓解压力,他随女友芭芭拉(Raquel Mero?o 饰)以及好友豪尔(Brendan Price 饰)、维琪(Birgit Bofarull 饰)乘游艇来到西班牙度假。
  
  在海上,他们听到附近印波加小岛传来的神秘歌声,随后一场特大暴风雨袭来,游艇触礁,维琪受伤。保罗和女友乘救生筏前去小岛求救,而留守的豪尔与维琪却遭到不明生物的袭击。保罗他们在岛上见到身体怪异的居民,为营救好友他们被迫分开,而噩梦就此开始……

Video
ID : 1
Format : AVC
Format/Info : Advanced Video Codec
Format profile : [email protected]
Format settings : CABAC / 4 Ref Frames
Format settings, CABAC : Yes
Format settings, Reference frames : 4 frames
Codec ID : V_MPEG4/ISO/AVC
Duration : 1 h 38 min
Bit rate : 11.6 Mb/s
Width : 1 920 pixels
Height : 1 080 pixels
Display aspect ratio : 16:9
Frame rate mode : Constant
Frame rate : 23.976 (24000/1001/189150) FPS
Color space : YUV
Chroma subsampling : 4:2:0
Bit depth : 8 bits
Scan type : Progressive
Bits/(Pixel*Frame) : 0.233
Stream size : 7.95 GiB (72%)
Writing library : x264 core 163 r3059 b684ebe0
Encoding settings : cabac=1 / ref=4 / deblock=1:-3:-3 / analyse=0x3:0x133 / me=umh / subme=10 / psy=1 / psy_rd=1.00:0.00 / mixed_ref=1 / me_range=32 / chroma_me=1 / trellis=2 / 8x8dct=1 / cqm=0 / deadzone=21,11 / fast_pskip=0 / chroma_qp_offset=-2 / threads=34 / lookahead_threads=8 / sliced_threads=0 / nr=0 / decimate=0 / interlaced=0 / bluray_compat=0 / constrained_intra=0 / bframes=16 / b_pyramid=2 / b_adapt=2 / b_bias=0 / direct=3 / weightb=1 / open_gop=0 / weightp=2 / keyint=240 / keyint_min=24 / scenecut=40 / intra_refresh=0 / rc_lookahead=60 / rc=crf / mbtree=0 / crf=17.0 / qcomp=0.60 / qpmin=0 / qpmax=69 / qpstep=4 / vbv_maxrate=62500 / vbv_bufsize=78125 / crf_max=0.0 / nal_hrd=none / filler=0 / ip_ratio=1.40 / pb_ratio=1.30 / aq=2:1.00
Default : Yes
Forced : No
Color range : Limited
Color primaries : BT.709
Transfer characteristics : BT.709
Matrix coefficients : BT.709

Audio #1
ID : 2
Format : DTS XLL
Format/Info : Digital Theater Systems
Commercial name : DTS-HD Master Audio
Codec ID : A_DTS
Duration : 1 h 38 min
Bit rate mode : Variable
Bit rate : 4 214 kb/s
Channel(s) : 6 channels
Channel layout : C L R Ls Rs LFE
Sampling rate : 48.0 kHz
Frame rate : 93.750 FPS (512 SPF)
Bit depth : 24 bits
Compression mode : Lossless
Stream size : 2.89 GiB (26%)
Language : English
Default : Yes
Forced : No

Audio #2
ID : 3
Format : AAC LC
Format/Info : Advanced Audio Codec Low Complexity
Codec ID : A_AAC-2
Duration : 1 h 38 min
Bit rate : 92.1 kb/s
Channel(s) : 2 channels
Channel layout : L R
Sampling rate : 48.0 kHz
Frame rate : 46.875 FPS (1024 SPF)
Compression mode : Lossy
Stream size : 64.7 MiB (1%)
Title : Commentary by director Stuart Gordon and screenwriter Denis Paoli
Language : English
Default : No
Forced : No

Audio #3
ID : 4
Format : AAC LC
Format/Info : Advanced Audio Codec Low Complexity
Codec ID : A_AAC-2
Duration : 1 h 38 min
Bit rate : 92.7 kb/s
Channel(s) : 2 channels
Channel layout : L R
Sampling rate : 48.0 kHz
Frame rate : 46.875 FPS (1024 SPF)
Compression mode : Lossy
Stream size : 65.1 MiB (1%)
Title : Commentary by director Stuart Gordon and actor Ezra Godden
Language : English
Default : No
Forced : No

Text #1
ID : 5
Format : UTF-8
Codec ID : S_TEXT/UTF8
Codec ID/Info : UTF-8 Plain Text
Duration : 1 h 30 min
Bit rate : 28 b/s
Count of elements : 1030
Stream size : 18.7 KiB (0%)
Title : SDH
Language : English
Default : No
Forced : No

Text #2
ID : 6
Format : PGS
Muxing mode : zlib
Codec ID : S_HDMV/PGS
Codec ID/Info : Picture based subtitle format used on BDs/HD-DVDs
Duration : 1 h 29 min
Bit rate : 14.2 kb/s
Count of elements : 1606
Stream size : 9.04 MiB (0%)
Language : Spanish
Default : No
Forced : No

Menu
00:00:00.000 : :Chapter 1
00:09:57.806 : :Chapter 2
00:17:04.649 : :Chapter 3
00:22:20.673 : :Chapter 4
00:32:32.451 : :Chapter 5
00:42:45.063 : :Chapter 6
00:49:40.019 : :Chapter 7
01:01:05.328 : :Chapter 8
01:09:50.728 : :Chapter 9
01:16:17.031 : :Chapter 10
01:25:07.978 : :Chapter 11
01:33:45.411 : :Chapter 12






Dagon.2001.iNTERNAL.1080p.BluRay.x264-PEGASUS.torrent
还没有人收藏过本帖~
最新回复 (0)
返回