如资源无法下载,请在「交流」反馈!

[更 早][欧美][剧情][BD-1080P]纽瓦克众圣 The.Many.Saints.of.Newark.2021.1080p.BluRay.x264.DTS-MT 12.60GB


帖子完整标题:纽瓦克众圣 The.Many.Saints.of.Newark.2021.1080p.BluRay.x264.DTS-MT 12.60GB



◎译  名 纽瓦克众圣/The Many Saints of Newark: A Sopranos Story/纽瓦克众圣徒:黑道家族外传/纽瓦克的诸多圣人/纽瓦克诸圣/黑道家族前传
◎片  名 The Many Saints of Newark
◎年  代 2021
◎产  地 美国
◎类  别 剧情 / 犯罪
◎语  言 英语
◎上映日期 2021-10-01(美国/美国网络)
◎豆瓣评分 6.1/10 from 695 users
◎豆瓣链接 https://movie.douban.com/subject/30165027/
◎片  长 120分钟
◎导  演 阿兰·泰勒 Alan Taylor
◎编  剧 劳伦斯·康纳尔 Lawrence Konner / 大卫·切斯 David Chase
◎主  演 迈克尔·甘多菲尼 Michael Gandolfini
      亚历桑德罗·尼沃拉 Alessandro Nivola
      维拉·法米加 Vera Farmiga
      乔·博恩瑟 Jon Bernthal
      小莱斯利·奥多姆 Leslie Odom Jr.
      寇瑞·斯托尔 Corey Stoll
      比利·马格努森 Billy Magnussen
      约翰·马加罗 John Magaro
      雷·利奥塔 Ray Liotta
      达里尔·爱德华兹 Daryl Edwards
      尼克·瓦莱隆加 Nick Vallelonga
      马提亚·孔福尔迪 Mattea Conforti
      德琼·瓦茨 De'Jon Watts
      法龙·索尔兹伯里 Faron Salisbury
      杰玛·特雷尔·加德纳 Germar Terrell Gardner
      安德鲁·波尔克 Andrew Polk
      肯·斯拉迪克 Ken Sladyk
      Sasha Morfaw Sasha Morfaw
      小戴维·M·桑多瓦尔 David M Sandoval Jr.
      Audrey Bennett Audrey Bennett
      伊恩·安特曼 Ian Unterman
      小弗洛伊德·安东尼·约翰 Floyd Anthony Johns Jr.
      克劳黛特·拉利 Claudette Lali
      斯蒂芬妮·林恩·威尔逊 Stephanie Lynn Wilson
      迈克尔·温·古查多 Michael Wren Gucciardo
      阿梅利亚·福勒 Amelia Fowler
      克里斯·勒潘塔 Chris LaPanta
      Edward Sass III Edward Sass III
      克雷格·格拉提 Craig Geraghty
      迈克尔·泽加斯基 Michael Zegarski
       Germir Robinson

◎标  签 黑道家族 | 犯罪 | 美国 | HBO | 2021 | 剧情 | 电影 | 华纳

◎简  介

  根据HBO大热剧集《黑道家族》改编的电影将问世,新线正在打造该剧前传电影[纽瓦克圣人](The Many Saints of Newark,暂译)。原剧编剧兼监制大卫·切斯及编剧劳伦斯·康纳尔操刀新片剧本,大卫·切斯任制片。影片故事背景设定在上世纪60年代纽瓦克暴力活动猖獗地带,黑帮争斗频发。该剧于1999年至2007年播出,共六季,获21项艾美奖、5项金球奖。原剧主演詹姆斯·甘多菲尼、弗兰克·文森特相继于2013年、去年去世。据悉原剧中多个粉丝熟悉的形象将现身大银幕。

Video
ID : 1
Format : AVC
Format/Info : Advanced Video Codec
Format profile : [email protected]
Format settings : CABAC / 5 Ref Frames
Format settings, CABAC : Yes
Format settings, Reference frames : 5 frames
Codec ID : V_MPEG4/ISO/AVC
Duration : 2 h 0 min
Bit rate : 13.5 Mb/s
Width : 1 920 pixels
Height : 804 pixels
Display aspect ratio : 2.40:1
Frame rate mode : Constant
Frame rate : 23.976 (24000/1001/189150) FPS
Color space : YUV
Chroma subsampling : 4:2:0
Bit depth : 8 bits
Scan type : Progressive
Bits/(Pixel*Frame) : 0.364
Stream size : 11.3 GiB (90%)
Writing library : x264 core 157 r2938 2b00a84 [email protected] Mod
Encoding settings : cabac=1 / ref=5 / deblock=1:-3:-3 / analyse=0x3:0x133 / me=umh / subme=10 / psy=1 / psy_rd=1.05:0.00 / mixed_ref=1 / me_range=32 / chroma_me=1 / trellis=2 / 8x8dct=1 / cqm=0 / deadzone=21,11 / fast_pskip=0 / chroma_qp_offset=-2 / threads=12 / lookahead_threads=2 / sliced_threads=0 / nr=0 / decimate=0 / interlaced=0 / bluray_compat=0 / constrained_intra=0 / bframes=8 / b_pyramid=2 / b_adapt=2 / b_bias=0 / direct=3 / weightb=1 / open_gop=0 / weightp=2 / keyint=250 / keyint_min=24 / scenecut=40 / intra_refresh=0 / rc_lookahead=250 / rc=crf / mbtree=0 / crf=16.8 / qcomp=0.60 / qpmin=0 / qpmax=69 / qpstep=4 / vbv_maxrate=62500 / vbv_bufsize=78125 / crf_max=0.0 / nal_hrd=none / filler=0 / ip_ratio=1.30 / pb_ratio=1.20 / aq=3:0.80
Language : English
Default : Yes
Forced : No
Color range : Limited
Color primaries : BT.709
Matrix coefficients : BT.709

Audio
ID : 2
Format : DTS
Format/Info : Digital Theater Systems
Codec ID : A_DTS
Duration : 2 h 0 min
Bit rate mode : Constant
Bit rate : 1 509 kb/s
Channel(s) : 6 channels
Channel layout : C L R Ls Rs LFE
Sampling rate : 48.0 kHz
Frame rate : 93.750 FPS (512 SPF)
Bit depth : 24 bits
Compression mode : Lossy
Stream size : 1.27 GiB (10%)
Language : English
Default : Yes
Forced : No

Text #1
ID : 3
Format : UTF-8
Codec ID : S_TEXT/UTF8
Codec ID/Info : UTF-8 Plain Text
Duration : 1 h 53 min
Bit rate : 57 b/s
Count of elements : 1412
Stream size : 48.1 KiB (0%)
Language : English
Default : Yes
Forced : No

Text #2
ID : 4
Format : UTF-8
Codec ID : S_TEXT/UTF8
Codec ID/Info : UTF-8 Plain Text
Duration : 1 h 55 min
Bit rate : 68 b/s
Count of elements : 1717
Stream size : 58.1 KiB (0%)
Title : SDH
Language : English
Default : No
Forced : No

Menu
00:00:00.000 : en:Chapter 01
00:11:54.213 : en:Chapter 02
00:21:18.277 : en:Chapter 03
00:31:28.970 : en:Chapter 04
00:40:19.459 : en:Chapter 05
00:50:07.838 : en:Chapter 06
01:00:41.346 : en:Chapter 07
01:10:19.882 : en:Chapter 08
01:19:52.204 : en:Chapter 09
01:30:13.325 : en:Chapter 10
01:39:26.502 : en:Chapter 11
01:47:53.217 : en:Chapter 12
01:54:00.667 : en:Chapter 13






The.Many.Saints.of.Newark.2021.1080p.BluRay.x264.DTS-MT.torrent
还没有人收藏过本帖~
最新回复 (0)
返回