如资源无法下载,请在「交流」反馈!

[更 早][欧美][动作][BD-4K]毒液2 Venom.Let.There.Be.Carnage.2021.2160p.WEB-DL.DDP5.1.Atmos.DV.MP4.x265-TEPES


帖子完整标题:毒液2 Venom.Let.There.Be.Carnage.2021.2160p.WEB-DL.DDP5.1.Atmos.DV.MP4.x265-TEPES 10.26GB



◎译  名 毒液2/Venom 2/毒液:屠杀开始/毒液:放纵屠杀/毒液2:屠杀将至/毒液2:屠杀开始/毒魔:血战大屠杀(港)/猛毒2:血蜘蛛(台)
◎片  名 Venom: Let There Be Carnage
◎年  代 2021
◎产  地 美国
◎类  别 动作 / 科幻 / 惊悚
◎语  言 英语
◎上映日期 2021(中国大陆) / 2021-10-01(美国) / 2021-10(英国)
◎豆瓣评分 5.1/10 from 44656 users
◎豆瓣链接 https://movie.douban.com/subject/30382416/
◎片  长 97分钟
◎导  演 安迪·瑟金斯 Andy Serkis
◎编  剧 凯莉·马塞尔 Kelly Marcel / 汤姆·哈迪 Tom Hardy
◎主  演 汤姆·哈迪 Tom Hardy
      伍迪·哈里森 Woody Harrelson
      米歇尔·威廉姆斯 Michelle Williams
      娜奥米·哈里斯 Naomie Harris
      瑞德·斯科特 Reid Scott
      斯蒂芬·格拉汉姆 Stephen Graham
      汤姆·赫兰德 Tom Holland
      里斯·谢尔史密斯 Reece Shearsmith
      肖恩·德兰尼 Sean Delaney
      佩吉·陆 Peggy Lu
      劳伦斯·斯佩尔曼 Laurence Spellman
      杰克·班戴拉 Jack Bandeira
      斯克鲁比斯·皮普 Scroobius Pip
      阿姆·阿勒卡迪 Amrou Al-Kadhi
      斯图尔特·亚历山大 Stewart Alexander
      克里斯托弗戈德温 Christopher Godwin
      格雷戈·洛基特 Greg Lockett
      桑尼·阿什本·瑟金斯 Sonny Ashbourne Serkis
      雷切尔·汉德肖 Rachel Handshaw
      小田部阿基 Akie Kotabe
      埃里克·西格蒙德森 Eric Sigmundsson
      何塞?帕尔马 Jose Palma
      Rosie Marcel Rosie Marcel
      艾略特·凯博尔 Elliot Cable
      威廉·W·巴伯 William W. Barbour
      埃尔文·费利西达 Erwin Felicilda
      露丝·霍洛克斯 Ruth Horrocks
      约翰·洛巴托 John Lobato
      迪索·拉莫斯 Diezel Ramos
      迈克尔·安德鲁·里德 Michael Andrew Reed
      里克·理查森 Rick Richardson
      安珀·西耶娜 Amber Sienna
      艾蒂安·维克 Etienne Vick
      杰茜·维宁 Jessie Vinning
      中川翔子 Sh?ko Nakagawa

◎标  签 漫威 | 毒液 | 科幻 | 超级英雄 | 美国 | 动作 | 2021 | 漫画改编

◎简  介

  电影讲述了外星共生体“毒液”与宿主埃迪(汤姆·哈迪 饰)这对“最佳拍档”遇上致命反派共生体“卡内奇”(伍迪·哈里森 饰),超级英雄和邪恶反派的宿命之战即将开始。

◎获奖情况

  第7届豆瓣电影年度榜单 ?(2020)
  最值得期待的外语电影(提名)
  
  第6届豆瓣电影年度榜单 ?(2019)
  最值得期待的外语电影(提名)

Video
ID : 1
Format : HEVC
Format/Info : High Efficiency Video Coding
Format profile : Main [email protected]@High
HDR format : Dolby Vision, Version 1.0, dvhe.05.06, BL+RPU
Codec ID : dvhe
Codec ID/Info : High Efficiency Video Coding with Dolby Vision
Duration : 1 h 37 min
Bit rate : 14.3 Mb/s
Width : 3 840 pixels
Height : 2 072 pixels
Original height : 2 068 pixels
Display aspect ratio : 1.85:1
Original display aspect ratio : 1.85:1
Frame rate mode : Constant
Frame rate : 23.976 (24000/1001/189150) FPS
Color space : YUV
Chroma subsampling : 4:2:0
Bit depth : 10 bits
Bits/(Pixel*Frame) : 0.075
Stream size : 9.73 GiB (95%)
Default : Yes
Alternate group : 1
Encoded date : UTC 2021-11-23 07:48:02
Tagged date : UTC 2021-11-23 07:53:31
Codec configuration box : hvcC+dvcC

Audio
ID : 2
Format : E-AC-3 JOC
Format/Info : Enhanced AC-3 with Joint Object Coding
Commercial name : Dolby Digital Plus with Dolby Atmos
Codec ID : ec-3
Duration : 1 h 37 min
Bit rate mode : Constant
Bit rate : 768 kb/s
Maximum bit rate : 811 kb/s
Channel(s) : 6 channels
Channel layout : L R C LFE Ls Rs
Sampling rate : 48.0 kHz
Frame rate : 31.250 FPS (1536 SPF)
Compression mode : Lossy
Stream size : 534 MiB (5%)
Title : English / English
Language : English
Service kind : Complete Main
Default : Yes
Alternate group : 1
Tagged date : UTC 2021-11-23 07:53:31
Complexity index : Not present / 16
Number of dynamic objects : 15
Bed channel count : 1 channel
Bed channel configuration : LFE

Text #1
ID : 4
Format : Timed Text
Codec ID : tx3g
Duration : 1 h 28 min
Bit rate mode : Variable
Bit rate : 71 b/s
Stream size : 46.1 KiB (0%)
Language : English
Forced : No
Encoded date : UTC 2021-11-23 07:53:30
Tagged date : UTC 2021-11-23 07:53:31

Text #2
ID : 5
Format : Timed Text
Codec ID : tx3g
Duration : 1 h 37 min
Bit rate mode : Variable
Bit rate : 99 b/s
Stream size : 70.6 KiB (0%)
Title : SDH
Language : English
Forced : No
Encoded date : UTC 2021-11-23 07:53:30
Tagged date : UTC 2021-11-23 07:53:31

Text #3
ID : 6
Format : Timed Text
Codec ID : tx3g
Duration : 1 h 37 min
Bit rate mode : Variable
Bit rate : 48 b/s
Stream size : 34.4 KiB (0%)
Title : Latin American
Language : Spanish
Forced : No
Encoded date : UTC 2021-11-23 07:53:30
Tagged date : UTC 2021-11-23 07:53:31

Text #4
ID : 7
Format : Timed Text
Codec ID : tx3g
Duration : 1 h 37 min
Bit rate mode : Variable
Bit rate : 51 b/s
Stream size : 36.1 KiB (0%)
Language : Korean
Forced : No
Encoded date : UTC 2021-11-23 07:53:30
Tagged date : UTC 2021-11-23 07:53:31

Text #5
ID : 8
Format : Timed Text
Codec ID : tx3g
Duration : 1 h 37 min
Bit rate mode : Variable
Bit rate : 49 b/s
Stream size : 35.2 KiB (0%)
Title : Brazilian
Language : Portuguese
Forced : No
Encoded date : UTC 2021-11-23 07:53:31
Tagged date : UTC 2021-11-23 07:53:31

Menu
00:00:00.000 : Chapter 1
00:05:25.949 : Chapter 2
00:11:33.485 : Chapter 3
00:18:22.434 : Chapter 4
00:23:00.630 : Chapter 5
00:30:27.160 : Chapter 6
00:35:03.769 : Chapter 7
00:43:09.130 : Chapter 8
00:47:27.347 : Chapter 9
00:54:53.418 : Chapter 10
01:01:32.817 : Chapter 11
01:06:19.478 : Chapter 12
01:11:49.184 : Chapter 13
01:18:03.725 : Chapter 14
01:21:52.494 : Chapter 15
01:26:41.326 : Chapter 16






Venom.Let.There.Be.Carnage.2021.2160p.WEB-DL.DDP5.1.Atmos.DV.MP4.x265-TEPES.torrent
还没有人收藏过本帖~
最新回复 (0)
返回