如资源无法下载,请在「交流」反馈!

[更 早][欧美][剧情][BD-4K]老去/归老 Old.2021.2160p.BluRay.x264.8bit.SDR.DTS-HD.MA.TrueHD.7.1.Atmos-SWTYBLZ 48.


帖子完整标题:老去/归老 Old.2021.2160p.BluRay.x264.8bit.SDR.DTS-HD.MA.TrueHD.7.1.Atmos-SWTYBLZ 48.23GB



◎译  名 老去/归老(豆友译名)/诡老(台)
◎片  名 Old
◎年  代 2021
◎产  地 美国
◎类  别 剧情 / 悬疑 / 惊悚 / 恐怖
◎语  言 英语
◎上映日期 2021-07-21(法国) / 2021-07-23(美国)
◎豆瓣评分 6.3/10 from 15754 users
◎豆瓣链接 https://movie.douban.com/subject/35017064/
◎片  长 108分钟
◎导  演 M·奈特·沙马兰 M. Night Shyamalan
◎编  剧 M·奈特·沙马兰 M. Night Shyamalan / 皮埃尔·莱维 Pierre Levy / 弗雷德里克·皮特斯 Frederick Peeters / Frederik Peeters Frederik Peeters
◎主  演 盖尔·加西亚·贝纳尔 Gael García Bernal
      薇姬·克里普斯 Vicky Krieps
      卢夫斯·塞维尔 Rufus Sewell
      亚历克斯·沃尔夫 Alex Wolff
      托马辛·麦肯齐 Thomasin McKenzie
      阿比·丽 Abbey Lee
      妮基·阿姆卡-伯德 Nikki Amuka-Bird
      肯·梁 Ken Leung
      伊莱扎·斯坎伦 Eliza Scanlen
      亚伦·皮埃尔 Aaron Pierre
      艾伯丝·戴维兹 Embeth Davidtz
      埃蒙·埃利奥特 Emun Elliott
      亚历克莎·斯温顿 Alexa Swinton
      古斯塔夫·汉马斯顿 Gustaf Hammarsten
      凯思琳·查尔方特 Kathleen Chalfant
      弗朗西斯卡·伊斯特伍德 Francesca Eastwood
      M·奈特·沙马兰 M. Night Shyamalan
      马修·希尔 Matthew Shear
      杰弗里·霍尔斯曼 Jeffrey Holsman
      玛格·达·席尔瓦 Margaux Da Silva

◎标  签 惊悚 | 美国 | 悬疑 | 2021 | 恐怖 | 奇幻 | 科幻 | 剧情

◎简  介

  这是一个完美的海滩假日,至少有一家人、一对年轻夫妇、几个游客和一个流亡者都这么认为,他们来到了同一个幽静、田园般的小海湾,那里有岩石池和沙滩,四周环绕着绿油油的、植被茂密的悬崖。但这个乌托邦背后隐藏着一个黑暗的秘密:首先是在水晶般清澈的水中有一具漂浮的女性尸体。还有一个诡异的事实正在上演:所有的孩子都在迅速衰老。很快,每个人都都发现他们正在变老——每半小时一次——而且他们似乎没有任何办法离开这个小海湾。
  
  沙马兰说这部电影是受到 Pierre Oscar Levy和艺术家Frederik Peeters创作的法国图画小说《沙堡》(Sandcastle)的启发。《沙堡》的故事里有13个人,他们无法离开一个神秘,僻静的海滩,那里隐藏着涉及时间的黑暗秘密。不过漫画里并没有给出这个时间谜团出现的原因,更像是一个关于生存与死亡预言故事。但《OLD》并不是直接改编自这部图像小说,所以沙马兰本人会来讲完这个故事和脑洞。

Video
ID : 1
Format : AVC
Format/Info : Advanced Video Codec
Format profile : [email protected]
Format settings : CABAC / 5 Ref Frames
Format settings, CABAC : Yes
Format settings, Reference frames : 5 frames
Codec ID : V_MPEG4/ISO/AVC
Duration : 1 h 48 min
Bit rate : 54.7 Mb/s
Width : 3 840 pixels
Height : 1 608 pixels
Display aspect ratio : 2.40:1
Frame rate mode : Constant
Frame rate : 23.976 (24000/1001/189150) FPS
Color space : YUV
Chroma subsampling : 4:2:0
Bit depth : 8 bits
Scan type : Progressive
Bits/(Pixel*Frame) : 0.370
Stream size : 41.5 GiB (86%)
Writing library : x264 core 157 r2935 545de2f
Encoding settings : cabac=1 / ref=5 / deblock=1:-1:-1 / analyse=0x3:0x113 / me=umh / subme=10 / psy=1 / psy_rd=1.00:0.15 / mixed_ref=1 / me_range=48 / chroma_me=1 / trellis=2 / 8x8dct=1 / cqm=0 / deadzone=21,11 / fast_pskip=1 / chroma_qp_offset=-3 / threads=48 / lookahead_threads=4 / sliced_threads=0 / nr=0 / decimate=0 / interlaced=0 / bluray_compat=0 / constrained_intra=0 / bframes=3 / b_pyramid=2 / b_adapt=2 / b_bias=0 / direct=3 / weightb=1 / open_gop=0 / weightp=2 / keyint=250 / keyint_min=23 / scenecut=40 / intra_refresh=0 / rc_lookahead=50 / rc=crf / mbtree=1 / crf=18.0 / qcomp=0.60 / qpmin=0 / qpmax=69 / qpstep=4 / ip_ratio=1.40 / aq=1:1.00
Default : Yes
Forced : No

Audio #1
ID : 2
Format : MLP FBA 16-ch
Format/Info : Meridian Lossless Packing FBA with 16-channel presentation
Commercial name : Dolby TrueHD with Dolby Atmos
Codec ID : A_TRUEHD
Duration : 1 h 48 min
Bit rate mode : Variable
Bit rate : 3 411 kb/s
Maximum bit rate : 4 908 kb/s
Channel(s) : 8 channels
Channel layout : L R C LFE Ls Rs Lb Rb
Sampling rate : 48.0 kHz
Frame rate : 1 200.000 FPS (40 SPF)
Compression mode : Lossless
Stream size : 2.58 GiB (5%)
Title : TrueHD 7.1 Atmos
Language : English
Default : Yes
Forced : No
Number of dynamic objects : 11
Bed channel count : 1 channel
Bed channel configuration : LFE

Audio #2
ID : 3
Format : DTS XLL
Format/Info : Digital Theater Systems
Commercial name : DTS-HD Master Audio
Codec ID : A_DTS
Duration : 1 h 48 min
Bit rate mode : Variable
Bit rate : 4 558 kb/s
Channel(s) : 8 channels
Channel layout : C L R LFE Lb Rb Lss Rss
Sampling rate : 48.0 kHz
Frame rate : 93.750 FPS (512 SPF)
Bit depth : 24 bits
Compression mode : Lossless
Stream size : 3.45 GiB (7%)
Title : DTS-HD MA 7.1
Language : English
Default : No
Forced : No

Audio #3
ID : 4
Format : AC-3
Format/Info : Audio Coding 3
Commercial name : Dolby Digital
Codec ID : A_AC3
Duration : 1 h 48 min
Bit rate mode : Constant
Bit rate : 448 kb/s
Channel(s) : 6 channels
Channel layout : L R C LFE Ls Rs
Sampling rate : 48.0 kHz
Frame rate : 31.250 FPS (1536 SPF)
Compression mode : Lossy
Stream size : 348 MiB (1%)
Title : DD 5.1
Language : English
Service kind : Complete Main
Default : No
Forced : No

Text #1
ID : 5
Format : UTF-8
Codec ID : S_TEXT/UTF8
Codec ID/Info : UTF-8 Plain Text
Duration : 1 h 43 min
Bit rate : 53 b/s
Count of elements : 1272
Stream size : 40.1 KiB (0%)
Title : SRT
Language : English
Default : Yes
Forced : No

Text #2
ID : 6
Format : UTF-8
Codec ID : S_TEXT/UTF8
Codec ID/Info : UTF-8 Plain Text
Duration : 1 h 43 min
Bit rate : 58 b/s
Count of elements : 1408
Stream size : 44.3 KiB (0%)
Title : SDH SRT
Language : English
Default : No
Forced : No

Text #3
ID : 7
Format : PGS
Muxing mode : zlib
Codec ID : S_HDMV/PGS
Codec ID/Info : Picture based subtitle format used on BDs/HD-DVDs
Duration : 1 h 43 min
Bit rate : 40.7 kb/s
Count of elements : 2830
Stream size : 30.1 MiB (0%)
Title : SDH
Language : English
Default : No
Forced : No

Text #4
ID : 8
Format : PGS
Muxing mode : zlib
Codec ID : S_HDMV/PGS
Codec ID/Info : Picture based subtitle format used on BDs/HD-DVDs
Duration : 1 h 47 min
Bit rate : 35.1 kb/s
Count of elements : 2486
Stream size : 27.0 MiB (0%)
Language : French
Default : No
Forced : No

Text #5
ID : 9
Format : PGS
Muxing mode : zlib
Codec ID : S_HDMV/PGS
Codec ID/Info : Picture based subtitle format used on BDs/HD-DVDs
Duration : 1 h 47 min
Bit rate : 34.0 kb/s
Count of elements : 2598
Stream size : 26.2 MiB (0%)
Title : Latin American
Language : Spanish
Default : No
Forced : No

Menu
00:00:00.000 : en:Chapter 01
00:05:50.099 : en:Chapter 02
00:13:46.617 : en:Chapter 03
00:18:35.447 : en:Chapter 04
00:23:05.675 : en:Chapter 05
00:28:32.669 : en:Chapter 06
00:32:43.419 : en:Chapter 07
00:38:01.654 : en:Chapter 08
00:43:25.728 : en:Chapter 09
00:47:54.162 : en:Chapter 10
00:53:05.640 : en:Chapter 11
01:01:32.939 : en:Chapter 12
01:05:11.365 : en:Chapter 13
01:08:52.336 : en:Chapter 14
01:12:43.901 : en:Chapter 15
01:18:59.484 : en:Chapter 16
01:23:29.796 : en:Chapter 17
01:29:13.222 : en:Chapter 18
01:34:26.285 : en:Chapter 19
01:41:17.988 : en:Chapter 20






Old.2021.2160p.BluRay.x264.8bit.SDR.DTS-HD.MA.TrueHD.7.1.Atmos-SWTYBLZ.torrent
还没有人收藏过本帖~
最新回复 (0)
返回