如资源无法下载,请在「交流」反馈!

[2019][韩国][剧情][WEB-1080P]老千3:独眼杰克 Tazza.One.Eyed.Jack.2019.KOREAN.1080p.WEBRip.x264-VXT 2.67GB


帖子完整标题:老千3:独眼杰克 Tazza.One.Eyed.Jack.2019.KOREAN.1080p.WEBRip.x264-VXT 2.67GB



◎译  名 老千3:独眼杰克/Tazza 3/Tazza: One Eyed Jack/老千:獨眼傑克(台)
◎片  名 ??: ? ??? ?
◎年  代 2019
◎产  地 韩国
◎类  别 剧情 / 动作
◎语  言 韩语
◎上映日期 2019-09-11(韩国)
◎豆瓣评分 6.4/10 from 13980 users
◎豆瓣链接 https://movie.douban.com/subject/26665875/
◎片  长 139分钟
◎导  演 权五光 Oh-Kwang Kwon
◎编  剧 许英万 Young-Man Huh / 许英万 Yeong-man Heo
◎主  演 朴正民 Jeong-min Park
      柳昇范 Seung-beom Ryu
      崔有华 Yu-hwa Choi
      禹贤 Hyeon Woo
      尹宰文 Je-mun Yun
      李光洙 Kwang-soo Lee
      林智妍 Ji-Yeon Lim
      权海骁 Hae-hyo Kwon
      崔宰贤 Jae-Hyun Choi
      李昶勋 Chang-hoon Lee
      李宏内 Hong-nae Lee
      李奎浩 Kyu-ho Lee
      金大涵 Dae-han Kim
      林孝振 Hyo-jin Im
      朱进模 Jin-mo Ju

◎标  签 老千系列电影 | 韩国 | 犯罪 | 韩国电影 | 李光洙 | 2019 | 剧情 | 动作

◎简  介

  神级老千异耳的儿子道日出(朴正民饰)结识了一只眼睛失明的神秘老千独眼(柳承范饰),从而进入了真正的高手世界。以独眼为首的众多技能派赌徒纷纷接到了能够改变命运的邀请牌“独眼杰克”,开始了一场生死赌博。

Video
ID : 1
Format : AVC
Format/Info : Advanced Video Codec
Format profile : [email protected]
Format settings : CABAC / 4 Ref Frames
Format settings, CABAC : Yes
Format settings, Reference frames : 4 frames
Codec ID : avc1
Codec ID/Info : Advanced Video Coding
Duration : 2 h 19 min
Source duration : 2 h 19 min
Bit rate : 2 500 kb/s
Width : 1 920 pixels
Height : 804 pixels
Display aspect ratio : 2.40:1
Frame rate mode : Constant
Frame rate : 23.976 (23976/1000/189150) FPS
Color space : YUV
Chroma subsampling : 4:2:0
Bit depth : 8 bits
Scan type : Progressive
Bits/(Pixel*Frame) : 0.068
Stream size : 2.44 GiB (92%)
Source stream size : 2.44 GiB (92%)
Writing library : x264 core 152 r2851M ba24899
Encoding settings : cabac=1 / ref=4 / deblock=1:-1:-1 / analyse=0x3:0x113 / me=umh / subme=9 / psy=1 / psy_rd=1.00:0.15 / mixed_ref=1 / me_range=24 / chroma_me=1 / trellis=2 / 8x8dct=1 / cqm=0 / deadzone=21,11 / fast_pskip=1 / chroma_qp_offset=-3 / threads=16 / lookahead_threads=4 / sliced_threads=0 / nr=0 / decimate=1 / interlaced=0 / bluray_compat=0 / constrained_intra=0 / bframes=3 / b_pyramid=2 / b_adapt=2 / b_bias=0 / direct=3 / weightb=1 / open_gop=0 / weightp=2 / keyint=250 / keyint_min=25 / scenecut=40 / intra_refresh=0 / rc_lookahead=50 / rc=2pass / mbtree=1 / bitrate=2500 / ratetol=1.0 / qcomp=0.60 / qpmin=0 / qpmax=69 / qpstep=4 / cplxblur=20.0 / qblur=0.5 / vbv_maxrate=31250 / vbv_bufsize=31250 / nal_hrd=none / filler=0 / ip_ratio=1.40 / aq=3:1.00
Encoded date : UTC 2021-10-20 13:53:01
Tagged date : UTC 2021-10-20 13:53:01
Codec configuration box : avcC

Audio
ID : 2
Format : AAC LC
Format/Info : Advanced Audio Codec Low Complexity
Codec ID : mp4a-40-2
Duration : 2 h 19 min
Duration_LastFrame : -11 ms
Bit rate mode : Constant
Bit rate : 224 kb/s
Channel(s) : 6 channels
Channel layout : C L R Ls Rs LFE
Sampling rate : 48.0 kHz
Frame rate : 46.875 FPS (1024 SPF)
Compression mode : Lossy
Stream size : 224 MiB (8%)
Language : Korean
Default : Yes
Alternate group : 1
Encoded date : UTC 2021-10-20 13:53:01
Tagged date : UTC 2021-10-20 13:53:01






Tazza.One.Eyed.Jack.2019.KOREAN.1080p.WEBRip.x264-VXT.torrent
还没有人收藏过本帖~
最新回复 (0)
返回
发新帖
即将对游客闭站,请注册账号备用!
影音屋为您提供最新的720P、1080P、2K、4K、原盘高清电影下载,内部交流社区,欢迎体验。影音屋,更多好电影待您发现!
加入福利电报群 加入福利企鹅群 淘宝天猫漏洞单