如资源无法下载,请在「交流」反馈!

[更 早][其他][惊悚][BD-1080P]屏住呼吸2/别呼吸2 Dont.Breathe.2.2021.1080p.BluRay.x264.DTS-HD.MA.5.1-MT 12.89GB


帖子完整标题:屏住呼吸2/别呼吸2 Dont.Breathe.2.2021.1080p.BluRay.x264.DTS-HD.MA.5.1-MT 12.89GB



◎译  名 屏住呼吸2/别呼吸2/暂时停止呼吸2(台)/禁室杀戮2(港)
◎片  名 Don't Breathe 2
◎年  代 2021
◎产  地 美国,塞尔维亚
◎类  别 惊悚 / 恐怖
◎语  言 英语
◎上映日期 2021-08-13(美国)
◎豆瓣评分 6.5/10 from 17750 users
◎豆瓣链接 https://movie.douban.com/subject/26915921/
◎片  长 98分钟
◎导  演 罗多·赛亚格斯 Rodo Sayagues
◎编  剧 费德·阿尔瓦雷兹 Fede Alvarez / 罗多·赛亚格斯 Rodo Sayagues
◎主  演 史蒂芬·朗 Stephen Lang
      布兰登·萨克斯顿 Brendan Sexton III
      马德琳·格雷斯 Madelyn Grace
      罗奇·威廉姆斯 Rocci Williams
      斯蒂芬妮·阿西拉 Stephanie Arcila
      鲍比·斯科菲尔德 Bobby Schofield
      戴安娜·巴尼科娃 Diaana Babnicova
      亚当·扬 Adam Young
      克里斯蒂安·泽吉亚 Christian Zagia
      罗恩·罗格尔 Ron Rogell
      菲奥娜·奥肖内西 Fiona O'Shaughnessy

◎标  签 惊悚 | 犯罪 | 美国 | 悬疑 | 恐怖 | 2021 | 美国电影 | 电影

◎简  介

  《屏住呼吸1》编剧罗多·赛亚格斯执导,并同前作导演费德·阿尔瓦雷兹一起写剧本,史蒂芬·朗、罗奇·威廉姆斯、斯蒂芬妮·阿西拉、鲍比·斯科菲尔德、亚当·扬等主演。
  
  故事发生在最初致命的入室抢劫之后的几年,眼盲的退伍老兵诺曼过着平静的生活,直到过去的罪恶开始找上他。

Video
ID : 1
Format : AVC
Format/Info : Advanced Video Codec
Format profile : [email protected]
Format settings : CABAC / 4 Ref Frames
Format settings, CABAC : Yes
Format settings, Reference frames : 4 frames
Codec ID : V_MPEG4/ISO/AVC
Duration : 1 h 38 min
Bit rate : 16.5 Mb/s
Width : 1 920 pixels
Height : 1 080 pixels
Display aspect ratio : 16:9
Frame rate mode : Constant
Frame rate : 23.976 (24000/1001/189150) FPS
Color space : YUV
Chroma subsampling : 4:2:0
Bit depth : 8 bits
Scan type : Progressive
Bits/(Pixel*Frame) : 0.332
Stream size : 11.3 GiB (88%)
Writing library : x264 core 157 r2938 2b00a84 [email protected] Mod
Encoding settings : cabac=1 / ref=4 / deblock=1:-3:-3 / analyse=0x3:0x133 / me=umh / subme=10 / psy=1 / psy_rd=1.05:0.00 / mixed_ref=1 / me_range=32 / chroma_me=1 / trellis=2 / 8x8dct=1 / cqm=0 / deadzone=21,11 / fast_pskip=0 / chroma_qp_offset=-2 / threads=12 / lookahead_threads=2 / sliced_threads=0 / nr=0 / decimate=0 / interlaced=0 / bluray_compat=0 / constrained_intra=0 / bframes=8 / b_pyramid=2 / b_adapt=2 / b_bias=0 / direct=3 / weightb=1 / open_gop=0 / weightp=2 / keyint=250 / keyint_min=24 / scenecut=40 / intra_refresh=0 / rc_lookahead=250 / rc=crf / mbtree=0 / crf=16.8 / qcomp=0.60 / qpmin=0 / qpmax=69 / qpstep=4 / vbv_maxrate=62500 / vbv_bufsize=78125 / crf_max=0.0 / nal_hrd=none / filler=0 / ip_ratio=1.30 / pb_ratio=1.20 / aq=3:0.80
Language : English
Default : Yes
Forced : No
Color range : Limited
Color primaries : BT.709
Matrix coefficients : BT.709

Audio
ID : 2
Format : DTS XLL
Format/Info : Digital Theater Systems
Commercial name : DTS-HD Master Audio
Codec ID : A_DTS
Duration : 1 h 38 min
Bit rate mode : Variable
Bit rate : 2 235 kb/s
Channel(s) : 6 channels
Channel layout : C L R Ls Rs LFE
Sampling rate : 48.0 kHz
Frame rate : 93.750 FPS (512 SPF)
Bit depth : 16 bits
Compression mode : Lossless
Stream size : 1.53 GiB (12%)
Language : English
Default : Yes
Forced : No

Text #1
ID : 3
Format : UTF-8
Codec ID : S_TEXT/UTF8
Codec ID/Info : UTF-8 Plain Text
Duration : 1 h 26 min
Bit rate : 15 b/s
Count of elements : 478
Stream size : 10.0 KiB (0%)
Title : SRT
Language : English
Default : Yes
Forced : No

Text #2
ID : 4
Format : PGS
Muxing mode : zlib
Codec ID : S_HDMV/PGS
Codec ID/Info : Picture based subtitle format used on BDs/HD-DVDs
Duration : 1 h 30 min
Bit rate : 14.9 kb/s
Count of elements : 1466
Stream size : 9.67 MiB (0%)
Language : English
Default : No
Forced : No

Menu
00:00:00.000 : en:Chapter 01
00:04:06.371 : en:Chapter 02
00:08:39.477 : en:Chapter 03
00:13:10.790 : en:Chapter 04
00:19:12.777 : en:Chapter 05
00:24:10.658 : en:Chapter 06
00:28:03.891 : en:Chapter 07
00:31:33.934 : en:Chapter 08
00:37:15.108 : en:Chapter 09
00:41:25.942 : en:Chapter 10
00:45:21.928 : en:Chapter 11
00:50:37.243 : en:Chapter 12
00:55:42.798 : en:Chapter 13
01:02:19.861 : en:Chapter 14
01:09:26.537 : en:Chapter 15
01:18:19.653 : en:Chapter 16






Dont.Breathe.2.2021.1080p.BluRay.x264.DTS-HD.MA.5.1-MT.torrent
还没有人收藏过本帖~
最新回复 (0)
返回