如资源无法下载,请在「交流」反馈!

[更 早][欧美][喜剧][BD-1080P]歌声俪影/歌剧院之夜 A.Night.at.the.Opera.1935.1080p.BluRay.x264.DTS-FGT 8.29GB


帖子完整标题:歌声俪影/歌剧院之夜 A.Night.at.the.Opera.1935.1080p.BluRay.x264.DTS-FGT 8.29GB



◎译  名 歌声俪影/歌剧院之夜/歌台三怪杰
◎片  名 A Night at the Opera
◎年  代 1935
◎产  地 美国
◎类  别 喜剧 / 音乐 / 歌舞
◎语  言 英语,意大利语
◎上映日期 1935-11-15(美国)
◎豆瓣评分 7.2/10 from 527 users
◎豆瓣链接 https://movie.douban.com/subject/1296879/
◎片  长 96 分钟
◎导  演 山姆·伍德 Sam Wood / 爱德芒德·古尔丁 Edmund Goulding
◎编  剧 乔治·S·考夫曼 George S. Kaufman / 莫里·里斯金德 Morrie Ryskind / 詹姆斯·凯文·麦吉尼斯 James Kevin McGuinness / 巴斯特·基顿 Buster Keaton / 阿尔·博斯伯格 Al Boasberg / 伯特·卡尔马 Bert Kalmar / 乔治·奥本海默 George Oppenheimer / 罗伯特·佩罗 Robert Pirosh / 哈里·鲁比 Harry Ruby / 乔治·希顿 George Seaton / 凯里·威尔逊 Carey Wilson
◎主  演 格劳乔·马克斯 Groucho Marx
      奇科·马克斯 Chico Marx
      哈勃·马克斯 Harpo Marx
      基蒂·卡莱尔 Kitty Carlisle
      艾伦·琼斯 Allan Jones
      Walter Woolf King Walter Woolf King
      西戈·鲁曼 Sig Ruman
      玛格丽特·杜蒙 Margaret Dumont
      爱德华·基恩 Edward Keane
      罗伯特·埃米特·奥康纳 Robert Emmett O'Connor
      Enrique Acosta Enrique Acosta
      Harry Allen Harry Allen
      Sam Appel Sam Appel
      金·巴格特 King Baggot
      Marion Bell Marion Bell
      Edna Bennett Edna Bennett
      斯坦利·布莱斯通 Stanley Blystone
      阿尔·布里奇 Al Bridge
      Loie Bridge Loie Bridge
      Lorraine Bridges Lorraine Bridges
      Nina Campana Nina Campana
      Jack Chefe Jack Chefe
      露丝·谢林顿 Ruth Cherrington
      Martin Cichy Martin Cichy
      基诺科拉多 Gino Corrado
      Gennaro Curci Gennaro Curci
      Sidney D'Albrook Sidney D'Albrook
      Bill Days Bill Days
      Mario Dominici Mario Dominici
      Mike Donovan Mike Donovan
      杰伊·伊顿 Jay Eaton
      Fanchon Fanchon
      Adolph Faylauer Adolph Faylauer
      Antonio Filauri Antonio Filauri
      Harry Fleischmann Harry Fleischmann
      贝丝·弗劳尔斯 Bess Flowers
      Otto Fries Otto Fries
      Bud Geary Bud Geary
      比利·吉尔伯特 Billy Gilbert
      威廉·古尔德 William Gould
      Julia Griffith Julia Griffith
      George Guhl George Guhl
      乔纳森·哈勒 Jonathan Hale
      Ben Hall Ben Hall
      Oscar 'Dutch' Hendrian Oscar 'Dutch' Hendrian
      Luther Hoobyar Luther Hoobyar
      Art Howard Art Howard
      Rodolfo Hoyos Rodolfo Hoyos
      乔治·欧文 George Irving
      塞尔默杰克逊 Selmer Jackson
      格温·李 Gwen Lee
      Jack 'Tiny' Lipson Jack 'Tiny' Lipson
      Wilbur Mack Wilbur Mack
      Tandy MacKenzie Tandy MacKenzie
      Tom Mahoney Tom Mahoney
      弗雷德·马拉泰斯塔 Fred Malatesta
      Jerry Mandy Jerry Mandy
      Alphonse Martell Alphonse Martell
      Francisco Marán Francisco Marán
      Charles McAvoy Charles McAvoy
      汤姆·麦奎尔 Tom McGuire
      Frank McClure Frank McClure
      埃德蒙·莫蒂默 Edmund Mortimer
      詹姆斯·C·莫顿 James C. Morton
      George Nardelli George Nardelli
      Field Norton Field Norton
      Alex Novinsky Alex Novinsky
      韦奇伍德·诺埃尔 Wedgwood Nowell
      威廉·H·奥布莱恩 William H. O'Brien
      Inez Palange Inez Palange
      Claude Payton Claude Payton
      Alexander Pollard Alexander Pollard
      拉斯·鲍威尔 Russ Powell
      珀内尔·普拉特 Purnell Pratt
      Hal Price Hal Price
      Ronald R. Rondell Ronald R. Rondell
      Alexander Schoenberg Alexander Schoenberg
      Earl Seaman Earl Seaman
      罗尔夫·塞丹 Rolfe Sedan
      Evelyn Selbie Evelyn Selbie
      Bruce Sidney Bruce Sidney
      菲利普斯·斯莫利 Phillips Smalley
      Stephen Soldi Stephen Soldi
      约翰·圣波利斯 John St. Polis
      Count Stefenelli Count Stefenelli
      Ludovico Tomarchio Ludovico Tomarchio
      Ellinor Vanderveer Ellinor Vanderveer
      Harry 'Zoup' Welsh Harry 'Zoup' Welsh
      Frank Yaconelli Frank Yaconelli
      Leo Sulky Leo Sulky
      哈利泰勒 Harry Tyler
      李奥·怀特 Leo White

◎标  签 喜剧 | 美国 | 歌舞 | 1930s | 1935 | 美国电影 | 黑白 | MarxBrothers

◎简  介

  剧情描述三兄弟之中的老大想尽办法欺骗一名贵妇投资他的歌剧公司,不料两名调皮捣蛋的弟弟却在歌剧首演之夜在台前幕后大出洋相,但如此以来却让两名真正有天份的年轻歌唱家得到出头机会。
  
  本片是喜剧组合马克斯兄弟享誉最高的一部名作。虽然有些人会觉得马克斯兄弟的笑闹手法夸张得几近无厘头,但导演萨姆·伍德把气氛拍得十分热闹有趣,在薄弱的情节和愚蠢的爱情故事之下仍制造出很高的娱乐性……

Video
ID : 1
Format : AVC
Format/Info : Advanced Video Codec
Format profile : [email protected]
Format settings : CABAC / 4 Ref Frames
Format settings, CABAC : Yes
Format settings, Reference frames : 4 frames
Codec ID : V_MPEG4/ISO/AVC
Duration : 1 h 31 min
Bit rate : 11.5 Mb/s
Width : 1 480 pixels
Height : 1 080 pixels
Display aspect ratio : 1.370
Frame rate mode : Constant
Frame rate : 23.976 (24000/1001/189150) FPS
Color space : YUV
Chroma subsampling : 4:2:0
Bit depth : 8 bits
Scan type : Progressive
Bits/(Pixel*Frame) : 0.300
Stream size : 7.32 GiB (88%)
Writing library : x264 core 148 r2748 97eaef2
Encoding settings : cabac=1 / ref=4 / deblock=1:-2:-2 / analyse=0x3:0x113 / me=umh / subme=9 / psy=1 / psy_rd=1.00:0.15 / mixed_ref=1 / me_range=16 / chroma_me=1 / trellis=2 / 8x8dct=1 / cqm=0 / deadzone=21,11 / fast_pskip=1 / chroma_qp_offset=-3 / threads=72 / lookahead_threads=3 / sliced_threads=0 / nr=0 / decimate=1 / interlaced=0 / bluray_compat=0 / constrained_intra=0 / bframes=3 / b_pyramid=2 / b_adapt=1 / b_bias=0 / direct=3 / weightb=1 / open_gop=0 / weightp=2 / keyint=250 / keyint_min=25 / scenecut=40 / intra_refresh=0 / rc_lookahead=50 / rc=2pass / mbtree=1 / bitrate=11500 / ratetol=1.0 / qcomp=0.60 / qpmin=0 / qpmax=69 / qpstep=4 / cplxblur=20.0 / qblur=0.5 / vbv_maxrate=31250 / vbv_bufsize=31250 / nal_hrd=none / filler=0 / ip_ratio=1.40 / aq=1:1.00
Language : English
Default : Yes
Forced : No

Audio
ID : 2
Format : DTS
Format/Info : Digital Theater Systems
Codec ID : A_DTS
Duration : 1 h 31 min
Bit rate mode : Constant
Bit rate : 1 509 kb/s
Channel(s) : 2 channels
Channel layout : L R
Sampling rate : 48.0 kHz
Frame rate : 93.750 FPS (512 SPF)
Bit depth : 16 bits
Compression mode : Lossy
Stream size : 984 MiB (12%)
Language : English
Default : Yes
Forced : No

Text
ID : 3
Format : UTF-8
Codec ID : S_TEXT/UTF8
Codec ID/Info : UTF-8 Plain Text
Duration : 1 h 29 min
Bit rate : 67 b/s
Count of elements : 1168
Stream size : 44.2 KiB (0%)
Language : English
Default : Yes
Forced : No

Menu
00:00:00.000 : en:Chapter 1
00:01:27.838 : en:Chapter 2
00:06:03.488 : en:Chapter 3
00:08:49.779 : en:Chapter 4
00:10:57.198 : en:Chapter 5
00:16:20.354 : en:Chapter 6
00:21:51.310 : en:Chapter 7
00:27:57.676 : en:Chapter 8
00:31:05.655 : en:Chapter 9
00:34:28.275 : en:Chapter 10
00:35:58.865 : en:Chapter 11
00:38:40.318 : en:Chapter 12
00:42:27.879 : en:Chapter 13
00:45:57.421 : en:Chapter 14
00:49:09.989 : en:Chapter 15
00:52:37.196 : en:Chapter 16
00:55:40.337 : en:Chapter 17
01:00:33.588 : en:Chapter 18
01:06:14.971 : en:Chapter 19
01:08:32.108 : en:Chapter 20
01:12:46.362 : en:Chapter 21
01:16:20.451 : en:Chapter 22
01:18:45.346 : en:Chapter 23
01:22:25.858 : en:Chapter 24
01:25:34.296 : en:Chapter 25
01:28:43.527 : en:Chapter 26
01:31:00.455 : en:Chapter 27






A.Night.at.the.Opera.1935.1080p.BluRay.x264.DTS-FGT.torrent
还没有人收藏过本帖~
最新回复 (0)
返回