如资源无法下载,请在「交流」反馈!

[更 早][欧美][其他][BD-1080P]来自科罗拉多的人/火窟鸳鸯 The.Man.From.Colorado.1948.1080p.BluRay.x264.DTS-FGT 8.93GB


帖子完整标题:来自科罗拉多的人/火窟鸳鸯 The.Man.From.Colorado.1948.1080p.BluRay.x264.DTS-FGT 8.93GB



◎译  名 来自科罗拉多的人/火窟鸳鸯
◎片  名 The Man from Colorado
◎年  代 1948
◎产  地 美国
◎类  别 西部
◎语  言 英语
◎上映日期 1948-08-07(瑞典)
◎豆瓣评分 7.0/10 from 51 users
◎豆瓣链接 https://movie.douban.com/subject/2155969/
◎片  长 100分钟
◎导  演 亨利·莱文 Henry Levin
◎编  剧 罗伯特·哈迪·安德鲁斯 Robert Hardy Andrews / 本·马多 Ben Maddow / 博登·蔡斯 Borden Chase
◎主  演 威廉·霍尔登 William Holden
      格伦·福特 Glenn Ford
      艾伦·德鲁 Ellen Drew
      弗莱德·格兰姆 Fred Graham
      埃迪·凡特思顿 Eddie Fetherston
      Ben Corbett Ben Corbett
      James Millican James Millican
      威廉·菲利普斯 William 'Bill' Phillips
      帕特·奥马利 Pat O'Malley
      Craig Reynolds Craig Reynolds
      雷·蒂尔 Ray Teal
      Blackie Whiteford Blackie Whiteford
      Ray Hyke Ray Hyke
      Clarence Chase Clarence Chase
      大卫·克拉克 David Clarke
      伊恩·麦克唐纳 Ian MacDonald
      杰罗姆·考特兰 Jerome Courtland
      埃德加·巴詹南 Edgar Buchanan
      丹佛·派尔 Denver Pyle
      迈伦·希里 Myron Healey
      斯坦利·安德鲁斯 Stanley Andrews
      沃尔特·鲍德温 Walter Baldwin
      Symona Boniface Symona Boniface
      雷·柯林斯 Ray Collins
      Fred Coby Fred Coby
      James Bush James Bush
      Mikel Conrad Mikel Conrad
      Jim Bannon Jim Bannon

◎标  签 美国 | 西部片 | 西部 | 1948 | WilliamHolden | 1940s | 威廉·霍尔登 | 美国电影

◎简  介

  暂无相关剧情介绍

Video
ID : 1
Format : AVC
Format/Info : Advanced Video Codec
Format profile : [email protected]
Format settings : CABAC / 4 Ref Frames
Format settings, CABAC : Yes
Format settings, Reference frames : 4 frames
Codec ID : V_MPEG4/ISO/AVC
Duration : 1 h 38 min
Bit rate : 11.5 Mb/s
Width : 1 444 pixels
Height : 1 080 pixels
Display aspect ratio : 4:3
Frame rate mode : Constant
Frame rate : 23.976 (24000/1001/189150) FPS
Color space : YUV
Chroma subsampling : 4:2:0
Bit depth : 8 bits
Scan type : Progressive
Bits/(Pixel*Frame) : 0.308
Stream size : 7.89 GiB (88%)
Writing library : x264 core 148 r2748 97eaef2
Encoding settings : cabac=1 / ref=4 / deblock=1:-2:-2 / analyse=0x3:0x113 / me=umh / subme=9 / psy=1 / psy_rd=1.00:0.15 / mixed_ref=1 / me_range=16 / chroma_me=1 / trellis=2 / 8x8dct=1 / cqm=0 / deadzone=21,11 / fast_pskip=1 / chroma_qp_offset=-3 / threads=72 / lookahead_threads=3 / sliced_threads=0 / nr=0 / decimate=1 / interlaced=0 / bluray_compat=0 / constrained_intra=0 / bframes=3 / b_pyramid=2 / b_adapt=1 / b_bias=0 / direct=3 / weightb=1 / open_gop=0 / weightp=2 / keyint=250 / keyint_min=25 / scenecut=40 / intra_refresh=0 / rc_lookahead=50 / rc=2pass / mbtree=1 / bitrate=11500 / ratetol=1.0 / qcomp=0.60 / qpmin=0 / qpmax=69 / qpstep=4 / cplxblur=20.0 / qblur=0.5 / vbv_maxrate=31250 / vbv_bufsize=31250 / nal_hrd=none / filler=0 / ip_ratio=1.40 / aq=1:1.00
Language : English
Default : Yes
Forced : No

Audio
ID : 2
Format : DTS
Format/Info : Digital Theater Systems
Codec ID : A_DTS
Duration : 1 h 38 min
Bit rate mode : Constant
Bit rate : 1 509 kb/s
Channel(s) : 2 channels
Channel layout : L R
Sampling rate : 48.0 kHz
Frame rate : 93.750 FPS (512 SPF)
Bit depth : 16 bits
Compression mode : Lossy
Stream size : 1.04 GiB (12%)
Language : English
Default : Yes
Forced : No

Menu
00:00:00.000 : en:Chapter 1
00:10:29.921 : en:Chapter 2
00:18:30.609 : en:Chapter 3
00:25:47.004 : en:Chapter 4
00:37:36.796 : en:Chapter 5
00:44:59.864 : en:Chapter 6
00:53:53.397 : en:Chapter 7
01:02:10.352 : en:Chapter 8
01:09:02.347 : en:Chapter 9
01:17:48.414 : en:Chapter 10
01:24:45.831 : en:Chapter 11
01:32:58.031 : en:Chapter 12






The.Man.From.Colorado.1948.1080p.BluRay.x264.DTS-FGT.torrent
还没有人收藏过本帖~
最新回复 (0)
返回