如资源无法下载,请在「交流」反馈!

[更 早][欧美][其他][BD-720P]活死人之夜/活死人之夜动画版 Night.of.the.Animated.Dead.2021.720p.BluRay.x264-FREEMAN 1.35GB


帖子完整标题:活死人之夜/活死人之夜动画版 Night.of.the.Animated.Dead.2021.720p.BluRay.x264-FREEMAN 1.35GB



◎译  名 活死人之夜/活死人之夜动画版
◎片  名 Night of the Animated Dead
◎年  代 2021
◎产  地 美国
◎类  别 动画 / 恐怖
◎上映日期 2021-09-21(美国)
◎豆瓣评分 4.0/10 from 146 users
◎豆瓣链接 https://movie.douban.com/subject/35512470/
◎主  演 乔什·杜哈明 Josh Duhamel
      杜勒·希尔 Dulé Hill
      凯瑟琳·伊莎贝尔 Katharine Isabelle
      詹姆斯·罗德 James Roday
      凯缇·萨克霍夫 Katee Sackhoff
      威尔·萨索 Will Sasso
      吉米·辛普森 Jimmi Simpson
      南希·特拉维斯 Nancy Travis

◎标  签 动画 | 2021 | 丧尸 | 美国 | 血腥 | 惊悚 | 恐怖 | 美国电影

◎简  介

  乔治·A·罗梅罗经典恐怖片[活死人之夜]将被翻拍为动画影片!杰森·阿克辛执导,乔什·杜哈明、杜勒·希尔、凯瑟琳·伊莎贝尔、詹姆斯·罗德、凯缇·萨克霍夫、威尔·萨索、吉米·辛普森、南希·特拉维斯配音。原版电影节以神秘丧尸复活为背景,讲述本、芭芭拉与其他五个人被困在宾州一处农庄,努力求生的故事。

Video
ID : 1
Format : AVC
Format/Info : Advanced Video Codec
Format profile : [email protected]
Format settings : CABAC / 8 Ref Frames
Format settings, CABAC : Yes
Format settings, Reference frames : 8 frames
Codec ID : V_MPEG4/ISO/AVC
Duration : 1 h 10 min
Bit rate : 2 036 kb/s
Width : 1 280 pixels
Height : 720 pixels
Display aspect ratio : 16:9
Frame rate mode : Constant
Frame rate : 23.976 (24000/1001/189150) FPS
Color space : YUV
Chroma subsampling : 4:2:0
Bit depth : 8 bits
Scan type : Progressive
Bits/(Pixel*Frame) : 0.092
Stream size : 1.01 GiB (75%)
Writing library : x264 core 164 r3075 66a5bc1
Encoding settings : cabac=1 / ref=8 / deblock=1:-3:-3 / analyse=0x3:0x133 / me=umh / subme=9 / psy=1 / psy_rd=1.00:0.00 / mixed_ref=1 / me_range=16 / chroma_me=1 / trellis=2 / 8x8dct=1 / cqm=0 / deadzone=21,11 / fast_pskip=0 / chroma_qp_offset=-2 / threads=22 / lookahead_threads=1 / sliced_threads=0 / nr=0 / decimate=1 / interlaced=0 / bluray_compat=0 / constrained_intra=0 / bframes=3 / b_pyramid=2 / b_adapt=2 / b_bias=0 / direct=3 / weightb=1 / open_gop=0 / weightp=2 / keyint=250 / keyint_min=23 / scenecut=40 / intra_refresh=0 / rc_lookahead=60 / rc=crf / mbtree=1 / crf=17.0 / qcomp=0.60 / qpmin=0 / qpmax=69 / qpstep=4 / ip_ratio=1.40 / aq=3:1.00
Default : Yes
Forced : No
Color range : Limited
Matrix coefficients : BT.709

Audio
ID : 2
Format : AC-3
Format/Info : Audio Coding 3
Commercial name : Dolby Digital
Codec ID : A_AC3
Duration : 1 h 10 min
Bit rate mode : Constant
Bit rate : 640 kb/s
Channel(s) : 6 channels
Channel layout : L R C LFE Ls Rs
Sampling rate : 48.0 kHz
Frame rate : 31.250 FPS (1536 SPF)
Compression mode : Lossy
Stream size : 324 MiB (23%)
Language : English
Service kind : Complete Main
Default : Yes
Forced : No

Text #1
ID : 3
Format : PGS
Muxing mode : zlib
Codec ID : S_HDMV/PGS
Codec ID/Info : Picture based subtitle format used on BDs/HD-DVDs
Duration : 1 h 9 min
Bit rate : 32.6 kb/s
Count of elements : 1502
Stream size : 16.3 MiB (1%)
Language : English
Default : No
Forced : No

Text #2
ID : 4
Format : PGS
Muxing mode : zlib
Codec ID : S_HDMV/PGS
Codec ID/Info : Picture based subtitle format used on BDs/HD-DVDs
Duration : 1 h 9 min
Bit rate : 40.9 kb/s
Count of elements : 1876
Stream size : 20.4 MiB (1%)
Language : French
Default : No
Forced : No

Text #3
ID : 5
Format : PGS
Muxing mode : zlib
Codec ID : S_HDMV/PGS
Codec ID/Info : Picture based subtitle format used on BDs/HD-DVDs
Duration : 1 h 9 min
Bit rate : 31.7 kb/s
Count of elements : 1488
Stream size : 15.8 MiB (1%)
Language : German
Default : No
Forced : No

Text #4
ID : 6
Format : PGS
Muxing mode : zlib
Codec ID : S_HDMV/PGS
Codec ID/Info : Picture based subtitle format used on BDs/HD-DVDs
Duration : 1 h 9 min
Bit rate : 29.5 kb/s
Count of elements : 1500
Stream size : 14.7 MiB (1%)
Language : Dutch
Default : No
Forced : No

Text #5
ID : 7
Format : PGS
Muxing mode : zlib
Codec ID : S_HDMV/PGS
Codec ID/Info : Picture based subtitle format used on BDs/HD-DVDs
Duration : 41 min 26 s
Bit rate : 644 b/s
Count of elements : 24
Stream size : 196 KiB (0%)
Language : Spanish
Default : No
Forced : No

Text #6
ID : 8
Format : PGS
Muxing mode : zlib
Codec ID : S_HDMV/PGS
Codec ID/Info : Picture based subtitle format used on BDs/HD-DVDs
Duration : 1 min 54 s
Bit rate : 14.0 kb/s
Count of elements : 16
Stream size : 195 KiB (0%)
Language : French
Default : No
Forced : No

Text #7
ID : 9
Format : PGS
Muxing mode : zlib
Codec ID : S_HDMV/PGS
Codec ID/Info : Picture based subtitle format used on BDs/HD-DVDs
Duration : 55 min 30 s
Bit rate : 570 b/s
Count of elements : 22
Stream size : 232 KiB (0%)
Language : German
Default : No
Forced : No

Text #8
ID : 10
Format : PGS
Muxing mode : zlib
Codec ID : S_HDMV/PGS
Codec ID/Info : Picture based subtitle format used on BDs/HD-DVDs
Duration : 1 h 8 min
Bit rate : 39.4 kb/s
Count of elements : 1870
Stream size : 19.5 MiB (1%)
Language : Spanish
Default : No
Forced : No

Menu
00:00:00.000 : en:00:00:00.000
00:05:40.257 : en:00:05:40.257
00:12:09.938 : en:00:12:09.938
00:20:54.336 : en:00:20:54.336
00:28:46.558 : en:00:28:46.558
00:37:53.897 : en:00:37:53.897
00:47:43.527 : en:00:47:43.527
00:57:33.367 : en:00:57:33.367
01:01:55.670 : en:01:01:55.670






Night.of.the.Animated.Dead.2021.720p.BluRay.x264-FREEMAN.torrent
还没有人收藏过本帖~
最新回复 (0)
返回
发新帖
即将对游客闭站,请注册账号备用!
影音屋为您提供最新的720P、1080P、2K、4K、原盘高清电影下载,内部交流社区,欢迎体验。影音屋,更多好电影待您发现!
加入福利电报群 加入福利企鹅群 淘宝天猫漏洞单