如资源无法下载,请在「交流」反馈!

[更 早][欧美][喜剧][BD-1080P]反败为胜 Necessary.Roughness.1991.1080p.BluRay.x264-MiMiC 19.85GB


帖子完整标题:反败为胜 Necessary.Roughness.1991.1080p.BluRay.x264-MiMiC 19.85GB



◎译  名 反败为胜
◎片  名 Necessary Roughness
◎年  代 1991
◎产  地 美国
◎类  别 喜剧 / 运动
◎语  言 英语
◎上映日期 1991-09-27
◎豆瓣评分 /10 from 0 users
◎豆瓣链接 https://movie.douban.com/subject/2983333/
◎片  长 108 分钟
◎导  演 斯坦·瑞格帝 Stan Dragoti
◎主  演 Jim Kelly Jim Kelly
      Ed 'Too Tall' Jones Ed 'Too Tall' Jones
      哈莉·简·科扎克 Harley Jane Kozak
      马库斯·吉亚马蒂 Marcus Giamatti
      H. Bud Otto H. Bud Otto
      Randy Tallman Randy Tallman
      伊万德·霍利菲尔德 Evander Holyfield
      Herschel Walker Herschel Walker
      Randy White Randy White
      Angela Gair Angela Gair
       Michael E. Perry
      阿兰·格拉夫 Allan Graf
      John Venable John Venable
      克里斯·伯曼 Chris Berman
      Lee Gideon Lee Gideon
      本·戴维森 Ben Davidson
      埃克托尔·埃利松多 Hector Elizondo
      凯茜·爱兰 Kathy Ireland
      拉里·米勒 Larry Miller
      斯科特·巴库拉 Scott Bakula
      Spencer Prokop Spencer Prokop
      弗雷德·多尔顿·汤普森 Fred Dalton Thompson
      安德鲁·劳厄尔 Andrew Lauer
      罗伯特·劳吉亚 Robert Loggia
      杰森·贝特曼 Jason Bateman
      罗伯·施奈德 Rob Schneider
      Sinbad Sinbad
      David Black David Black
      迈克尔·多兰 Michael Dolan
      Steven Derek Steven Derek
      Tony Dorsett Tony Dorsett
      罗杰·克雷格 Roger Craig
      Earl Campbell Earl Campbell
      达里尔·考克斯 Darryl Cox
      迪克·布特库斯 Dick Butkus
      杰瑞·赖斯 Jerry Rice
      路易·曼迪勒 Louis Mandylor
      安德鲁·布莱尼亚斯基 Andrew Bryniarski

◎标  签 美国 | 电影 | 喜剧 | 体育 | 要看的电影 | ScottBakula | 1991 | 美国电影

◎简  介

  根据美国大学体育协会的规定,德州州立大学被迫组成一支橄榄球队,由于没有奖学金的支持,愿意加入橄榄球队的学生少的可怜。这个临时成军的球队,由34岁的四分卫领军,他发现自己的球员,都是对橄榄球徒有狂热,没有概念的阿达球员,后卫球员将每一场比赛都视为战斗,中卫球员深受金钱问题困扰,前锋球员有的以日本武士道精神打球,有的则是蛮横的牛仔,更糟的是,踢球员是一个女生,中锋球员还爱上了她!这一群菜鸟球员是否有机会反败为胜呢?

Video
ID : 1
Format : AVC
Format/Info : Advanced Video Codec
Format profile : [email protected]
Format settings : CABAC / 4 Ref Frames
Format settings, CABAC : Yes
Format settings, Reference frames : 4 frames
Codec ID : V_MPEG4/ISO/AVC
Duration : 1 h 48 min
Bit rate : 22.0 Mb/s
Width : 1 920 pixels
Height : 1 080 pixels
Display aspect ratio : 16:9
Frame rate mode : Constant
Frame rate : 23.976 (24000/1001/189150) FPS
Color space : YUV
Chroma subsampling : 4:2:0
Bit depth : 8 bits
Scan type : Progressive
Bits/(Pixel*Frame) : 0.442
Stream size : 16.6 GiB (84%)
Writing library : x264 core 164 r3075 66a5bc1
Encoding settings : cabac=1 / ref=4 / deblock=1:0:0 / analyse=0x3:0x133 / me=umh / subme=9 / psy=1 / psy_rd=1.00:0.00 / mixed_ref=1 / me_range=16 / chroma_me=1 / trellis=2 / 8x8dct=1 / cqm=0 / deadzone=21,11 / fast_pskip=0 / chroma_qp_offset=-2 / threads=34 / lookahead_threads=2 / sliced_threads=0 / nr=0 / decimate=0 / interlaced=0 / bluray_compat=0 / constrained_intra=0 / bframes=3 / b_pyramid=2 / b_adapt=2 / b_bias=0 / direct=3 / weightb=1 / open_gop=0 / weightp=2 / keyint=240 / keyint_min=23 / scenecut=40 / intra_refresh=0 / rc=crf / mbtree=0 / crf=20.7 / qcomp=0.60 / qpmin=0 / qpmax=69 / qpstep=4 / ip_ratio=1.40 / pb_ratio=1.30 / aq=1:1.00
Default : Yes
Forced : No
Color range : Limited
Matrix coefficients : BT.709

Audio
ID : 2
Format : DTS XLL
Format/Info : Digital Theater Systems
Commercial name : DTS-HD Master Audio
Codec ID : A_DTS
Duration : 1 h 48 min
Bit rate mode : Variable
Bit rate : 4 209 kb/s
Channel(s) : 6 channels
Channel layout : C L R Ls Rs LFE
Sampling rate : 48.0 kHz
Frame rate : 93.750 FPS (512 SPF)
Bit depth : 24 bits
Compression mode : Lossless
Stream size : 3.18 GiB (16%)
Language : English
Default : Yes
Forced : No

Text #1
ID : 3
Format : PGS
Muxing mode : zlib
Codec ID : S_HDMV/PGS
Codec ID/Info : Picture based subtitle format used on BDs/HD-DVDs
Duration : 1 h 42 min
Bit rate : 37.4 kb/s
Count of elements : 2224
Stream size : 27.5 MiB (0%)
Title : English
Language : English
Default : No
Forced : No

Text #2
ID : 4
Format : PGS
Muxing mode : zlib
Codec ID : S_HDMV/PGS
Codec ID/Info : Picture based subtitle format used on BDs/HD-DVDs
Duration : 1 h 42 min
Bit rate : 55.6 kb/s
Count of elements : 3934
Stream size : 40.8 MiB (0%)
Title : English - SDH
Language : English
Default : No
Forced : No

Text #3
ID : 5
Format : PGS
Muxing mode : zlib
Codec ID : S_HDMV/PGS
Codec ID/Info : Picture based subtitle format used on BDs/HD-DVDs
Duration : 1 h 42 min
Bit rate : 38.9 kb/s
Count of elements : 2240
Stream size : 28.6 MiB (0%)
Title : German
Language : German
Default : No
Forced : No

Text #4
ID : 6
Format : PGS
Muxing mode : zlib
Codec ID : S_HDMV/PGS
Codec ID/Info : Picture based subtitle format used on BDs/HD-DVDs
Duration : 1 h 41 min
Bit rate : 41.0 kb/s
Count of elements : 2260
Stream size : 29.8 MiB (0%)
Title : French
Language : French
Default : No
Forced : No

Text #5
ID : 7
Format : PGS
Muxing mode : zlib
Codec ID : S_HDMV/PGS
Codec ID/Info : Picture based subtitle format used on BDs/HD-DVDs
Duration : 1 h 41 min
Bit rate : 27.7 kb/s
Count of elements : 2696
Stream size : 20.0 MiB (0%)
Title : Japanese
Language : Japanese
Default : No
Forced : No

Text #6
ID : 8
Format : PGS
Muxing mode : zlib
Codec ID : S_HDMV/PGS
Codec ID/Info : Picture based subtitle format used on BDs/HD-DVDs
Duration : 1 h 3 min
Bit rate : 339 b/s
Count of elements : 14
Stream size : 157 KiB (0%)
Title : French Descriptions
Language : French
Default : No
Forced : No

Menu
00:00:00.000 : Chapter 01
00:06:46.323 : Chapter 02
00:13:22.218 : Chapter 03
00:18:20.725 : Chapter 04
00:26:21.914 : Chapter 05
00:35:58.323 : Chapter 06
00:44:21.158 : Chapter 07
00:57:15.140 : Chapter 08
01:04:34.621 : Chapter 09
01:11:30.661 : Chapter 10
01:20:33.829 : Chapter 11
01:29:59.394 : Chapter 12
01:34:26.786 : Chapter 13
01:40:43.329 : Chapter 14
01:44:19.587 : Chapter 15






Necessary.Roughness.1991.1080p.BluRay.x264-MiMiC.torrent
还没有人收藏过本帖~
最新回复 (0)
返回
发新帖
即将对游客闭站,请注册账号备用!
影音屋为您提供最新的720P、1080P、2K、4K、原盘高清电影下载,内部交流社区,欢迎体验。影音屋,更多好电影待您发现!
加入福利电报群 加入福利企鹅群 淘宝天猫漏洞单