如资源无法下载,请在「交流」反馈!

[更 早][欧美][剧情][BD-1080P]涛海春晓/富贵浮云 Boom.1968.1080p.BluRay.x264-BiPOLAR 17.24GB


帖子完整标题:涛海春晓/富贵浮云 Boom.1968.1080p.BluRay.x264-BiPOLAR 17.24GB



◎译  名 涛海春晓/富贵浮云
◎片  名 Boom
◎年  代 1968
◎产  地 英国
◎类  别 剧情 / 惊悚
◎语  言 英语,意大利语
◎上映日期 1968-05-26
◎豆瓣评分 /10 from 0 users
◎豆瓣链接 https://movie.douban.com/subject/1297730/
◎片  长 113 分钟
◎导  演 约瑟夫·罗西 Joseph Losey
◎编  剧 田纳西·威廉斯 Tennessee Williams
◎主  演 理查德·伯顿 Richard Burton
      Veronica Wells Veronica Wells
      Howard Taylor Howard Taylor
      罗慕洛·瓦利 Romolo Valli
      迈克尔·邓恩 Michael Dunn
      乔安娜·辛库斯 Joanna Shimkus
      诺埃尔·考沃德 Noel Coward
      伊丽莎白·泰勒 Elizabeth Taylor

◎标  签 伊丽莎白·泰勒 | Tennessee_Williams | 英国电影 | 约瑟夫·罗西 | 1960s | 美国 | 田纳西.威廉姆斯 | ElizabethTaylor

◎简  介

  The incredibly rich writer Sissy Goforth lives alone with her servants and nurses on the top of a Mediterranean island, on which she makes her own rules. Her days consist of dictating her autobiography and begging for injections. Here comes Chris Flanders, a.k.a. the angel of death - he has the weird habit of paying visit to unfortunate ladies shortly before their death. Sissy dresses him like a Japanese warrior, and he contemplates in that outfit the waves breaking against the rocks below. The witch of Capri - a neighbour - is invited to share their dinner, a larger than life - and still moving - monster of the sea.

Video
ID : 1
Format : AVC
Format/Info : Advanced Video Codec
Format profile : [email protected]
Format settings : CABAC / 5 Ref Frames
Format settings, CABAC : Yes
Format settings, Reference frames : 5 frames
Codec ID : V_MPEG4/ISO/AVC
Duration : 1 h 52 min
Bit rate : 21.6 Mb/s
Width : 1 920 pixels
Height : 816 pixels
Display aspect ratio : 2.35:1
Frame rate mode : Constant
Frame rate : 23.976 (24000/1001/189150) FPS
Color space : YUV
Chroma subsampling : 4:2:0
Bit depth : 8 bits
Scan type : Progressive
Bits/(Pixel*Frame) : 0.574
Stream size : 17.0 GiB (98%)
Writing library : x264 core 164 r3065 ae03d92
Encoding settings : cabac=1 / ref=5 / deblock=1:-3:-3 / analyse=0x3:0x133 / me=umh / subme=10 / psy=1 / psy_rd=1.00:0.15 / mixed_ref=1 / me_range=24 / chroma_me=1 / trellis=2 / 8x8dct=1 / cqm=0 / deadzone=21,11 / fast_pskip=1 / chroma_qp_offset=-3 / threads=24 / lookahead_threads=4 / sliced_threads=0 / nr=0 / decimate=1 / interlaced=0 / bluray_compat=0 / constrained_intra=0 / bframes=8 / b_pyramid=2 / b_adapt=2 / b_bias=0 / direct=3 / weightb=1 / open_gop=0 / weightp=2 / keyint=250 / keyint_min=23 / scenecut=40 / intra_refresh=0 / rc_lookahead=60 / rc=crf / mbtree=1 / crf=18.0 / qcomp=0.60 / qpmin=0 / qpmax=69 / qpstep=4 / ip_ratio=1.40 / aq=3:0.60
Language : English
Default : Yes
Forced : No
Color range : Limited
Matrix coefficients : BT.709

Audio #1
ID : 2
Format : FLAC
Format/Info : Free Lossless Audio Codec
Codec ID : A_FLAC
Duration : 1 h 52 min
Bit rate mode : Variable
Bit rate : 237 kb/s
Channel(s) : 2 channels
Channel layout : L R
Sampling rate : 48.0 kHz
Frame rate : 11.719 FPS (4096 SPF)
Bit depth : 16 bits
Compression mode : Lossless
Stream size : 191 MiB (1%)
Writing library : libFLAC 1.2.1 (UTC 2007-09-17)
Language : English
Default : Yes
Forced : No

Audio #2
ID : 3
Format : AAC LC
Format/Info : Advanced Audio Codec Low Complexity
Codec ID : A_AAC-2
Duration : 1 h 52 min
Bit rate : 81.8 kb/s
Channel(s) : 2 channels
Channel layout : L R
Sampling rate : 48.0 kHz
Frame rate : 46.875 FPS (1024 SPF)
Compression mode : Lossy
Delay relative to video : 20 ms
Stream size : 65.9 MiB (0%)
Title : Audio Commentary with Filmmaker John Waters
Language : English
Default : No
Forced : No

Text #1
ID : 4
Format : UTF-8
Codec ID : S_TEXT/UTF8
Codec ID/Info : UTF-8 Plain Text
Duration : 1 h 48 min
Bit rate : 57 b/s
Count of elements : 1535
Stream size : 45.1 KiB (0%)
Title : English
Language : English
Default : No
Forced : No

Text #2
ID : 5
Format : UTF-8
Codec ID : S_TEXT/UTF8
Codec ID/Info : UTF-8 Plain Text
Duration : 1 h 51 min
Bit rate : 59 b/s
Count of elements : 1659
Stream size : 48.5 KiB (0%)
Title : English SDH
Language : English
Default : No
Forced : No

Text #3
ID : 6
Format : PGS
Muxing mode : zlib
Codec ID : S_HDMV/PGS
Codec ID/Info : Picture based subtitle format used on BDs/HD-DVDs
Duration : 1 h 51 min
Bit rate : 35.7 kb/s
Count of elements : 2461
Stream size : 28.4 MiB (0%)
Title : English SDH
Language : English
Default : No
Forced : No






Boom.1968.1080p.BluRay.x264-BiPOLAR.torrent
还没有人收藏过本帖~
最新回复 (0)
返回