如资源无法下载,请在「交流」反馈!

[更 早][欧美][剧情][BD-1080P]疯人院 Bedlam.1946.1080p.BluRay.x264.DTS-FGT 7.20GB


帖子完整标题:疯人院 Bedlam.1946.1080p.BluRay.x264.DTS-FGT 7.20GB



◎译  名 疯人院
◎片  名 Bedlam
◎年  代 1946
◎产  地 美国
◎类  别 剧情 / 惊悚 / 恐怖
◎语  言 英语
◎上映日期 1946-05-10
◎豆瓣评分 /10 from 0 users
◎豆瓣链接 https://movie.douban.com/subject/1295648/
◎片  长 79 分钟
◎导  演 马克·罗布森 Mark Robson
◎编  剧 马克·罗布森 Mark Robson / 瓦尔·鲁东 Val Lewton / 威廉·霍格思 William Hogarth
◎主  演 波利斯·卡洛夫 Boris Karloff
      安娜·李 Anna Lee
      比利·豪斯 Billy House

◎标  签 1940s | 美国 | 惊悚 | 美国电影 | 恐怖 | 马克·罗布森 | Mark_Robson | 黑白

◎简  介

  暂无相关剧情介绍

Video
ID : 1
Format : AVC
Format/Info : Advanced Video Codec
Format profile : [email protected]
Format settings : CABAC / 4 Ref Frames
Format settings, CABAC : Yes
Format settings, Reference frames : 4 frames
Codec ID : V_MPEG4/ISO/AVC
Duration : 1 h 19 min
Bit rate : 11.5 Mb/s
Width : 1 480 pixels
Height : 1 080 pixels
Display aspect ratio : 1.370
Frame rate mode : Constant
Frame rate : 23.976 (24000/1001/189150) FPS
Color space : YUV
Chroma subsampling : 4:2:0
Bit depth : 8 bits
Scan type : Progressive
Bits/(Pixel*Frame) : 0.300
Stream size : 6.37 GiB (88%)
Writing library : x264 core 148 r2795M aaa9aa8
Encoding settings : cabac=1 / ref=4 / deblock=1:-2:-2 / analyse=0x3:0x113 / me=umh / subme=9 / psy=1 / psy_rd=1.00:0.15 / mixed_ref=1 / me_range=16 / chroma_me=1 / trellis=2 / 8x8dct=1 / cqm=0 / deadzone=21,11 / fast_pskip=1 / chroma_qp_offset=-3 / threads=24 / lookahead_threads=3 / sliced_threads=0 / nr=0 / decimate=1 / interlaced=0 / bluray_compat=0 / constrained_intra=0 / bframes=3 / b_pyramid=2 / b_adapt=1 / b_bias=0 / direct=3 / weightb=1 / open_gop=0 / weightp=2 / keyint=250 / keyint_min=25 / scenecut=40 / intra_refresh=0 / rc_lookahead=50 / rc=2pass / mbtree=1 / bitrate=11500 / ratetol=1.0 / qcomp=0.60 / qpmin=0 / qpmax=69 / qpstep=4 / cplxblur=20.0 / qblur=0.5 / vbv_maxrate=31250 / vbv_bufsize=31250 / nal_hrd=none / filler=0 / ip_ratio=1.40 / aq=1:1.00
Language : English
Default : Yes
Forced : No

Audio
ID : 2
Format : DTS
Format/Info : Digital Theater Systems
Codec ID : A_DTS
Duration : 1 h 19 min
Bit rate mode : Constant
Bit rate : 1 509 kb/s
Channel(s) : 2 channels
Channel layout : L R
Sampling rate : 48.0 kHz
Frame rate : 93.750 FPS (512 SPF)
Bit depth : 16 bits
Compression mode : Lossy
Stream size : 856 MiB (12%)
Language : English
Default : Yes
Forced : No

Text
ID : 3
Format : UTF-8
Codec ID : S_TEXT/UTF8
Codec ID/Info : UTF-8 Plain Text
Duration : 1 h 16 min
Bit rate : 77 b/s
Count of elements : 1111
Stream size : 43.2 KiB (0%)
Language : English
Default : Yes
Forced : No

Menu
00:00:00.000 : en:Chapter 1
00:01:28.922 : en:Chapter 2
00:04:02.784 : en:Chapter 3
00:08:32.804 : en:Chapter 4
00:11:07.917 : en:Chapter 5
00:14:33.748 : en:Chapter 6
00:16:33.951 : en:Chapter 7
00:20:58.716 : en:Chapter 8
00:23:16.395 : en:Chapter 9
00:27:28.981 : en:Chapter 10
00:33:20.707 : en:Chapter 11
00:35:45.185 : en:Chapter 12
00:40:55.328 : en:Chapter 13
00:44:10.648 : en:Chapter 14
00:48:03.631 : en:Chapter 15
00:51:57.823 : en:Chapter 16
00:55:17.356 : en:Chapter 17
00:59:02.497 : en:Chapter 18
01:05:07.237 : en:Chapter 19
01:08:55.798 : en:Chapter 20
01:11:02.008 : en:Chapter 21
01:14:59.829 : en:Chapter 22
01:17:46.871 : en:Chapter 23






Bedlam.1946.1080p.BluRay.x264.DTS-FGT.torrent
还没有人收藏过本帖~
最新回复 (0)
返回
发新帖
即将对游客闭站,请注册账号备用!
影音屋为您提供最新的720P、1080P、2K、4K、原盘高清电影下载,内部交流社区,欢迎体验。影音屋,更多好电影待您发现!
加入福利电报群 加入福利企鹅群 淘宝天猫漏洞单