如资源无法下载,请在「交流」反馈!

[2019][日本][爱情][BD-1080P]剧演的终章 Matinee.2019.JAPANESE.1080p.BluRay.x264.DD5.1-EDPH 13.60GB


帖子完整标题:剧演的终章 Matinee.2019.JAPANESE.1080p.BluRay.x264.DD5.1-EDPH 13.60GB



◎译  名 剧演的终章/Matinee/日场演出的终章/日场的终结/日间演奏会散场时(港/台)/音乐会结束时
◎片  名 マチネの終わりに
◎年  代 2019
◎产  地 日本
◎类  别 爱情
◎语  言 日语
◎上映日期 2019-11-01(日本)
◎豆瓣评分 6.4/10 from 1239 users
◎豆瓣链接 https://movie.douban.com/subject/26979057/
◎片  长 124分钟
◎导  演 西谷弘 Hiroshi Nishitani
◎编  剧 井上由美子 Yumiko Inoue
◎主  演 福山雅治 Masaharu Fukuyama
      石田百合子 Yuriko Ishida
      伊势谷友介 Y?suke Iseya
      樱井由纪 Yuki Sakurai
      木南晴夏 Haruka Kinami
      风吹淳 Jun Fubuki
      板谷由夏 Yuka Itaya
      古谷一行 Ikk? Furuya

◎标  签 福山雅治 | 日本 | 爱情 | 日本电影 | 石田百合子 | 音乐 | 2019 | 石田ゆり子

◎简  介

  影片根据《日蚀》作家平野启一郎的同名小说改编,以日本、巴黎、纽约为舞台,讲述石田百合子饰演的女记者和福山雅治饰演的古典吉他演奏家之间的纯美爱情。

Video
ID : 1
Format : AVC
Format/Info : Advanced Video Codec
Format profile : [email protected]
Format settings : CABAC / 4 Ref Frames
Format settings, CABAC : Yes
Format settings, Reference frames : 4 frames
Codec ID : V_MPEG4/ISO/AVC
Duration : 2 h 3 min
Bit rate : 15.0 Mb/s
Width : 1 920 pixels
Height : 1 038 pixels
Display aspect ratio : 1.85:1
Frame rate mode : Constant
Frame rate : 23.976 (24000/1001/189150) FPS
Color space : YUV
Chroma subsampling : 4:2:0
Bit depth : 8 bits
Scan type : Progressive
Bits/(Pixel*Frame) : 0.314
Stream size : 13.0 GiB (96%)
Writing library : x264 core 160 r3009 4c9b076
Encoding settings : cabac=1 / ref=4 / deblock=1:-3:-3 / analyse=0x3:0x133 / me=umh / subme=11 / psy=1 / psy_rd=1.02:0.00 / mixed_ref=1 / me_range=32 / chroma_me=1 / trellis=2 / 8x8dct=1 / cqm=0 / deadzone=21,11 / fast_pskip=0 / chroma_qp_offset=-2 / threads=32 / lookahead_threads=8 / sliced_threads=0 / nr=0 / decimate=0 / interlaced=0 / bluray_compat=0 / constrained_intra=0 / bframes=16 / b_pyramid=2 / b_adapt=2 / b_bias=0 / direct=3 / weightb=1 / open_gop=0 / weightp=2 / keyint=250 / keyint_min=23 / scenecut=40 / intra_refresh=0 / rc_lookahead=250 / rc=crf / mbtree=0 / crf=20.0 / qcomp=0.60 / qpmin=0 / qpmax=69 / qpstep=4 / vbv_maxrate=62500 / vbv_bufsize=78125 / crf_max=0.0 / nal_hrd=none / filler=0 / ip_ratio=1.30 / pb_ratio=1.20 / aq=3:0.65
Language : English
Default : Yes
Forced : No
Color range : Limited
Color primaries : BT.709
Matrix coefficients : BT.709

Audio
ID : 2
Format : AC-3
Format/Info : Audio Coding 3
Commercial name : Dolby Digital
Codec ID : A_AC3
Duration : 2 h 3 min
Bit rate mode : Constant
Bit rate : 640 kb/s
Channel(s) : 6 channels
Channel layout : L R C LFE Ls Rs
Sampling rate : 48.0 kHz
Frame rate : 31.250 FPS (1536 SPF)
Compression mode : Lossy
Stream size : 567 MiB (4%)
Language : Japanese
Service kind : Complete Main
Default : Yes
Forced : No

Text #1
ID : 3
Format : UTF-8
Codec ID : S_TEXT/UTF8
Codec ID/Info : UTF-8 Plain Text
Duration : 2 h 2 min
Bit rate : 28 b/s
Count of elements : 997
Stream size : 25.9 KiB (0%)
Language : English
Default : No
Forced : No

Text #2
ID : 4
Format : PGS
Muxing mode : zlib
Codec ID : S_HDMV/PGS
Codec ID/Info : Picture based subtitle format used on BDs/HD-DVDs
Duration : 1 h 58 min
Bit rate : 139 kb/s
Count of elements : 6012
Stream size : 118 MiB (1%)
Language : Japanese
Default : No
Forced : No

Menu
00:00:00.000 : ja:Chapter 01
00:14:22.903 : ja:Chapter 02
00:23:06.635 : ja:Chapter 03
00:32:52.553 : ja:Chapter 04
00:41:02.501 : ja:Chapter 05
00:45:19.591 : ja:Chapter 06
00:57:25.442 : ja:Chapter 07
01:09:48.225 : ja:Chapter 08
01:17:54.670 : ja:Chapter 09
01:24:28.730 : ja:Chapter 10
01:35:54.248 : ja:Chapter 11
01:44:33.267 : ja:Chapter 12
01:52:34.497 : ja:Chapter 13
01:58:03.493 : ja:Chapter 14






Matinee.2019.JAPANESE.1080p.BluRay.x264.DD5.1-EDPH.torrent
还没有人收藏过本帖~
最新回复 (0)
返回
发新帖
即将对游客闭站,请注册账号备用!
影音屋为您提供最新的720P、1080P、2K、4K、原盘高清电影下载,内部交流社区,欢迎体验。影音屋,更多好电影待您发现!
加入福利电报群 加入福利企鹅群 淘宝天猫漏洞单