如资源无法下载,请在「交流」反馈!

[2008][其他][动作][BD-1080P]狼牙 Legendary.Assassin.2008.CHINESE.1080p.BluRay.x264.DTS-EDPH 8.32GB


帖子完整标题:狼牙 Legendary.Assassin.2008.CHINESE.1080p.BluRay.x264.DTS-EDPH 8.32GB



◎译  名 Legendary Assassin/狼牙之阿布
◎片  名 狼牙
◎年  代 2008
◎产  地 中国香港
◎类  别 动作 / 惊悚
◎语  言 粤语,日语,英语
◎上映日期 2008-12-04(中国香港)
◎豆瓣评分 6.4/10 from 41142 users
◎豆瓣链接 https://movie.douban.com/subject/3082452/
◎片  长 89分钟
◎导  演 李忠志 Chung Chi Li / 吴京 Jing Wu
◎编  剧 冯志强 Chi Keung Fung
◎主  演 吴京 Jing Wu
      方力申 Lik-Sun Fong
      寇占文 Zhan-Wen Keu
      郑中基 Ronald Cheng
      卢靖姗 Celina Jade
      森美 Sammy Leung
      许绍雄 Siu-Hung Hui
      青山伦子 Noriko Aoyama
      林雪 Suet Lam
      姜宝成 Baocheng Jiang
      郑浩南 Mark Cheng
      田启文 Kai Man Tin
      惠英红 Kara Wai Ying Hung
      黄伟亮 Jack Wai Leung Wong

◎标  签 动作 | 吴京 | 香港 | 香港电影 | 狼牙 | 暴力 | 2008 | 电影

◎简  介

  台风过境,阴霾的天色不知会在闭港的小岛上空持续多久,陈旧的民宅内,几个帮派人物突遭袭击,来人身手矫健,斩去当家马天泰之首级后消失于夜色……
  
  次日,小岛女警晓禾(Celina Jade 饰)为救自家的猫坠树,一过路男子相救,他自称阿布(吴京 饰)。两人在食档与三名泰国悍匪狭路相逢,晓禾耿直但无法抵敌,阿布出手拼倒三人,随晓禾暂留警局。阿布令属意晓禾的警员泰山(森美 饰)大为吃味,同袍关公(许绍雄 饰)与靓宝(方力申 饰)冷语调笑,给这孤独的小岛警局凭添了不少温馨活气。
  
  马天泰遗孀佐佐木(青山伦子 饰)命手下肥荣(林雪 饰)带人登岛,寻回马爷头颅凑成全尸,孰料晓禾与泰山巡逻中发现藏尸处反将尸身也带走,肥荣等人冲入警局抢尸,混战中靓宝中枪殉职。
  
  港口重新开放,大批警员登岛,阿布因断头案的嫌疑被短暂扣留后释放,他虽然能瞒过警方,却无法摆脱佐佐木的追杀,晓禾被对方掳走以后,阿布再没有其他选择……

Video
ID : 1
Format : AVC
Format/Info : Advanced Video Codec
Format profile : [email protected]
Format settings : CABAC / 4 Ref Frames
Format settings, CABAC : Yes
Format settings, Reference frames : 4 frames
Codec ID : V_MPEG4/ISO/AVC
Duration : 1 h 28 min
Bit rate : 11.5 Mb/s
Width : 1 920 pixels
Height : 1 080 pixels
Display aspect ratio : 16:9
Frame rate mode : Constant
Frame rate : 23.976 (24000/1001/189150) FPS
Color space : YUV
Chroma subsampling : 4:2:0
Bit depth : 8 bits
Scan type : Progressive
Bits/(Pixel*Frame) : 0.232
Stream size : 7.14 GiB (86%)
Writing library : x264 core 161 r3027 4121277
Encoding settings : cabac=1 / ref=4 / deblock=1:-3:-3 / analyse=0x3:0x133 / me=umh / subme=11 / psy=1 / psy_rd=1.02:0.00 / mixed_ref=1 / me_range=32 / chroma_me=1 / trellis=2 / 8x8dct=1 / cqm=0 / deadzone=21,11 / fast_pskip=0 / chroma_qp_offset=-2 / threads=12 / lookahead_threads=3 / sliced_threads=0 / nr=0 / decimate=0 / interlaced=0 / bluray_compat=0 / constrained_intra=0 / bframes=16 / b_pyramid=2 / b_adapt=2 / b_bias=0 / direct=3 / weightb=1 / open_gop=0 / weightp=2 / keyint=250 / keyint_min=23 / scenecut=40 / intra_refresh=0 / rc_lookahead=250 / rc=crf / mbtree=0 / crf=19.2 / qcomp=0.65 / qpmin=0 / qpmax=69 / qpstep=4 / vbv_maxrate=62500 / vbv_bufsize=78125 / crf_max=0.0 / nal_hrd=none / filler=0 / ip_ratio=1.30 / pb_ratio=1.20 / aq=3:0.80
Default : No
Forced : No
Color range : Limited
Color primaries : BT.709
Matrix coefficients : BT.709

Audio #1
ID : 2
Format : DTS
Format/Info : Digital Theater Systems
Codec ID : A_DTS
Duration : 1 h 28 min
Bit rate mode : Constant
Bit rate : 1 509 kb/s
Channel(s) : 6 channels
Channel layout : C L R Ls Rs LFE
Sampling rate : 48.0 kHz
Frame rate : 93.750 FPS (512 SPF)
Bit depth : 16 bits
Compression mode : Lossy
Stream size : 956 MiB (11%)
Title : Cantonese
Language : Chinese
Default : Yes
Forced : No

Audio #2
ID : 3
Format : AC-3
Format/Info : Audio Coding 3
Commercial name : Dolby Digital
Codec ID : A_AC3
Duration : 1 h 28 min
Bit rate mode : Constant
Bit rate : 384 kb/s
Channel(s) : 6 channels
Channel layout : L R C LFE Ls Rs
Sampling rate : 48.0 kHz
Frame rate : 31.250 FPS (1536 SPF)
Compression mode : Lossy
Delay relative to video : 209 ms
Stream size : 243 MiB (3%)
Title : Mandarin
Language : Chinese
Service kind : Complete Main
Default : No
Forced : No

Text #1
ID : 4
Format : UTF-8
Codec ID : S_TEXT/UTF8
Codec ID/Info : UTF-8 Plain Text
Duration : 1 h 23 min
Bit rate : 33 b/s
Count of elements : 676
Stream size : 20.8 KiB (0%)
Language : English
Default : Yes
Forced : No

Text #2
ID : 5
Format : UTF-8
Codec ID : S_TEXT/UTF8
Codec ID/Info : UTF-8 Plain Text
Duration : 1 h 25 min
Bit rate : 24 b/s
Count of elements : 676
Stream size : 15.2 KiB (0%)
Title : Simplified
Language : Chinese
Default : No
Forced : No

Menu
00:00:00.000 : en:Chapter 01
00:05:22.488 : en:Chapter 02
00:11:12.963 : en:Chapter 03
00:16:31.198 : en:Chapter 04
00:24:48.403 : en:Chapter 05
00:30:22.987 : en:Chapter 06
00:38:12.415 : en:Chapter 07
00:43:09.211 : en:Chapter 08
00:48:26.945 : en:Chapter 09
00:55:07.345 : en:Chapter 10
01:02:08.975 : en:Chapter 11
01:06:28.901 : en:Chapter 12
01:09:52.563 : en:Chapter 13
01:18:22.864 : en:Chapter 14
01:22:21.436 : en:Chapter 15
01:25:31.334 : en:Chapter 16






Legendary.Assassin.2008.CHINESE.1080p.BluRay.x264.DTS-EDPH.torrent
还没有人收藏过本帖~
最新回复 (0)
返回