如资源无法下载,请在「交流」反馈!

[2017][欧美][剧情][BD-1080P]镜像世界 Parallel.2018.1080p.BluRay.x264.DTS-c0kE 7.91GB


帖子完整标题:镜像世界 Parallel.2018.1080p.BluRay.x264.DTS-c0kE 7.91GB



◎译  名 镜像世界
◎片  名 Parallel
◎年  代 2017
◎产  地 美国
◎类  别 剧情 / 科幻 / 悬疑 / 惊悚
◎语  言 英语
◎上映日期 2018-04-10(比利时-布鲁塞尔国际奇幻电影节) / 2019-08-23(美国-新首映,布法罗梦幻电影节) / 2020-12-11(美国)
◎豆瓣评分 /10 from 0 users
◎豆瓣链接 https://movie.douban.com/subject/27043978/
◎片  长 104分钟
◎导  演 伊萨克·厄兹本 Isaac Ezban
◎主  演 阿梅尔·艾米恩 Aml Ameen
      凯瑟琳·奎南 Kathleen Quinlan
      乔治雅·金 Georgia King
      艾尔莎·迪亚茨 Alyssa Diaz
      马丁·沃斯特罗姆 Martin Wallstr?m

◎标  签 科幻 | 惊悚 | 悬疑 | 美国 | 电影 | 2018 | 美国电影 | 影院

◎简  介

  A group of friends stumble upon a mirror that serves as a portal to a "multiverse", but soon discover that importing knowledge from the other side in order to better their lives brings increasingly dangerous consequences.

Video
ID : 1
Format : AVC
Format/Info : Advanced Video Codec
Format profile : [email protected]
Format settings : CABAC / 5 Ref Frames
Format settings, CABAC : Yes
Format settings, Reference frames : 5 frames
Codec ID : V_MPEG4/ISO/AVC
Duration : 1 h 43 min
Bit rate : 9 372 kb/s
Width : 1 920 pixels
Height : 804 pixels
Display aspect ratio : 2.40:1
Frame rate mode : Constant
Frame rate : 24.000 FPS
Color space : YUV
Chroma subsampling : 4:2:0
Bit depth : 8 bits
Scan type : Progressive
Bits/(Pixel*Frame) : 0.253
Stream size : 6.81 GiB (86%)
Writing library : x264 core 164 r3065+55M 280faca t_mod_New [(8 & 10)[email protected] X86_64]
Encoding settings : cabac=1 / ref=5 / deblock=1:-3:-3 / analyse=0x3:0x133 / me=umh / subme=10 / psy=1 / fade_compensate=0.00 / psy_rd=1.00:0.00 / mixed_ref=1 / me_range=32 / chroma_me=1 / trellis=2 / 8x8dct=1 / cqm=0 / deadzone=21,11 / fast_pskip=0 / chroma_qp_offset=-2 / threads=6 / lookahead_threads=1 / sliced_threads=0 / nr=0 / decimate=0 / interlaced=0 / bluray_compat=0 / constrained_intra=0 / fgo=0 / bframes=16 / b_pyramid=2 / b_adapt=2 / b_bias=0 / direct=3 / weightb=1 / open_gop=0 / weightp=2 / keyint=250 / keyint_min=24 / scenecut=40 / intra_refresh=0 / rc_lookahead=60 / rc=crf / mbtree=0 / crf=16.5000 / qcomp=0.60 / qpmin=0:0:0 / qpmax=69:69:69 / qpstep=4 / vbv_maxrate=62500 / vbv_bufsize=78125 / crf_max=0.0 / nal_hrd=none / filler=0 / ip_ratio=1.30 / pb_ratio=1.20 / aq=3:0.80 / aq-sensitivity=10.00 / aq-factor=1.00:1.00:1.00 / aq2=0 / aq3=0
Language : English
Default : Yes
Forced : No
Color range : Limited
Matrix coefficients : BT.709

Audio
ID : 2
Format : DTS
Format/Info : Digital Theater Systems
Codec ID : A_DTS
Duration : 1 h 43 min
Bit rate mode : Constant
Bit rate : 1 509 kb/s
Channel(s) : 6 channels
Channel layout : C L R Ls Rs LFE
Sampling rate : 48.0 kHz
Frame rate : 93.750 FPS (512 SPF)
Bit depth : 24 bits
Compression mode : Lossy
Stream size : 1.10 GiB (14%)
Language : English
Default : Yes
Forced : No

Text #1
ID : 3
Format : UTF-8
Codec ID : S_TEXT/UTF8
Codec ID/Info : UTF-8 Plain Text
Duration : 1 h 42 min
Bit rate : 63 b/s
Count of elements : 1485
Stream size : 47.4 KiB (0%)
Language : English
Default : Yes
Forced : No

Text #2
ID : 4
Format : UTF-8
Codec ID : S_TEXT/UTF8
Codec ID/Info : UTF-8 Plain Text
Duration : 1 h 37 min
Bit rate : 81 b/s
Count of elements : 1294
Stream size : 58.5 KiB (0%)
Language : Vietnamese
Default : No
Forced : No

Text #3
ID : 5
Format : UTF-8
Codec ID : S_TEXT/UTF8
Codec ID/Info : UTF-8 Plain Text
Duration : 1 h 35 min
Bit rate : 54 b/s
Count of elements : 1179
Stream size : 38.0 KiB (0%)
Language : Romanian
Default : No
Forced : No

Text #4
ID : 6
Format : PGS
Muxing mode : zlib
Codec ID : S_HDMV/PGS
Codec ID/Info : Picture based subtitle format used on BDs/HD-DVDs
Duration : 1 h 43 min
Bit rate : 20.2 kb/s
Count of elements : 2637
Stream size : 15.0 MiB (0%)
Language : French
Default : No
Forced : No

Menu
00:00:00.000 : :Chapter 01
00:09:01.958 : :Chapter 02
00:18:48.208 : :Chapter 03
00:32:07.750 : :Chapter 04
00:43:51.542 : :Chapter 05
00:59:39.125 : :Chapter 06
01:09:43.125 : :Chapter 07
01:19:33.292 : :Chapter 08
01:35:17.583 : :Chapter 09






Parallel.2018.1080p.BluRay.x264.DTS-c0kE.torrent
还没有人收藏过本帖~
最新回复 (0)
返回
发新帖
即将对游客闭站,请注册账号备用!
影音屋为您提供最新的720P、1080P、2K、4K、原盘高清电影下载,内部交流社区,欢迎体验。影音屋,更多好电影待您发现!
加入福利电报群 加入福利企鹅群 淘宝天猫漏洞单