如资源无法下载,请在「交流」反馈!

[更 早][欧美][剧情][BD-1080P]暗夜心声/小人物改邪归正 Straight.Time.1978.1080p.BluRay.x264.DTS-FGT 10.36GB


帖子完整标题:暗夜心声/小人物改邪归正 Straight.Time.1978.1080p.BluRay.x264.DTS-FGT 10.36GB



◎译  名 暗夜心声/小人物改邪归正
◎片  名 Straight Time
◎年  代 1978
◎产  地 美国
◎类  别 剧情 / 犯罪
◎语  言 英语
◎上映日期 1978-03-18
◎豆瓣评分 7.9/10 from 170 users
◎豆瓣链接 https://movie.douban.com/subject/1301425/
◎片  长 114分钟
◎导  演 达斯汀·霍夫曼 Dustin Hoffman / 乌鲁·格罗斯巴德 Ulu Grosbard
◎编  剧 阿尔文·萨金特 Alvin Sargent / 爱德华·邦克 Edward Bunker / 杰弗里·鲍姆 Jeffrey Boam / 迈克尔·曼 Michael Mann / 南希·多德 Nancy Dowd
◎主  演 达斯汀·霍夫曼 Dustin Hoffman
      泰莉莎·拉塞尔 Theresa Russell
      加里·布塞 Gary Busey
      凯西·贝茨 Kathy Bates
      Dick Ziker Dick Ziker
      弗兰·瑞恩 Fran Ryan
      丽塔·塔格特 Rita Taggart
      詹姆斯·雷 James Ray
      Corey Rand Corey Rand
      蒂娜·梅纳德 Tina Menard
      Mags Kavanaugh Mags Kavanaugh
      彼得·朱拉斯克 Peter Jurasik
      杰克·布塞 Jake Busey
      爱德华·邦克 Edward Bunker
      哈利·戴恩·斯坦通 Harry Dean Stanton
      M·埃梅特·沃尔什 M. Emmet Walsh
      山迪·巴朗 Sandy Baron
      Mary Craven Mary Craven
      Everett Creach Everett Creach
      巴里·卡希尔 Barry Cahill
      彼得·邝 Peter Kwong

◎标  签 美国 | 犯罪 | 达斯汀·霍夫曼 | DustinHoffman | 1978 | 美国电影 | 剧情 | 电影

◎简  介

  暂无相关剧情介绍

Video
ID : 1
Format : AVC
Format/Info : Advanced Video Codec
Format profile : [email protected]
Format settings : CABAC / 4 Ref Frames
Format settings, CABAC : Yes
Format settings, Reference frames : 4 frames
Codec ID : V_MPEG4/ISO/AVC
Duration : 1 h 53 min
Bit rate : 11.5 Mb/s
Width : 1 920 pixels
Height : 1 036 pixels
Display aspect ratio : 1.85:1
Frame rate mode : Constant
Frame rate : 23.976 (24000/1001/189150) FPS
Color space : YUV
Chroma subsampling : 4:2:0
Bit depth : 8 bits
Scan type : Progressive
Bits/(Pixel*Frame) : 0.241
Stream size : 9.16 GiB (88%)
Writing library : x264 core 148 r2748 97eaef2
Encoding settings : cabac=1 / ref=4 / deblock=1:-2:-2 / analyse=0x3:0x113 / me=umh / subme=9 / psy=1 / psy_rd=1.00:0.15 / mixed_ref=1 / me_range=16 / chroma_me=1 / trellis=2 / 8x8dct=1 / cqm=0 / deadzone=21,11 / fast_pskip=1 / chroma_qp_offset=-3 / threads=24 / lookahead_threads=3 / sliced_threads=0 / nr=0 / decimate=1 / interlaced=0 / bluray_compat=0 / constrained_intra=0 / bframes=3 / b_pyramid=2 / b_adapt=1 / b_bias=0 / direct=3 / weightb=1 / open_gop=0 / weightp=2 / keyint=250 / keyint_min=25 / scenecut=40 / intra_refresh=0 / rc_lookahead=50 / rc=2pass / mbtree=1 / bitrate=11500 / ratetol=1.0 / qcomp=0.60 / qpmin=0 / qpmax=69 / qpstep=4 / cplxblur=20.0 / qblur=0.5 / vbv_maxrate=31250 / vbv_bufsize=31250 / nal_hrd=none / filler=0 / ip_ratio=1.40 / aq=1:1.00
Language : English
Default : Yes
Forced : No

Audio
ID : 2
Format : DTS
Format/Info : Digital Theater Systems
Codec ID : A_DTS
Duration : 1 h 53 min
Bit rate mode : Constant
Bit rate : 1 509 kb/s
Channel(s) : 2 channels
Channel layout : L R
Sampling rate : 48.0 kHz
Frame rate : 93.750 FPS (512 SPF)
Bit depth : 16 bits
Compression mode : Lossy
Stream size : 1.20 GiB (12%)
Language : English
Default : Yes
Forced : No

Text
ID : 3
Format : UTF-8
Codec ID : S_TEXT/UTF8
Codec ID/Info : UTF-8 Plain Text
Duration : 1 h 49 min
Bit rate : 59 b/s
Count of elements : 1504
Stream size : 47.6 KiB (0%)
Language : English
Default : Yes
Forced : No

Menu
00:00:00.000 : en:Chapter 1
00:05:21.947 : en:Chapter 2
00:10:39.389 : en:Chapter 3
00:13:18.965 : en:Chapter 4
00:17:10.238 : en:Chapter 5
00:21:03.137 : en:Chapter 6
00:25:29.445 : en:Chapter 7
00:27:32.401 : en:Chapter 8
00:32:32.159 : en:Chapter 9
00:36:23.765 : en:Chapter 10
00:40:43.149 : en:Chapter 11
00:43:24.101 : en:Chapter 12
00:45:04.577 : en:Chapter 13
00:47:55.790 : en:Chapter 14
00:51:21.662 : en:Chapter 15
00:53:54.314 : en:Chapter 16
00:58:39.725 : en:Chapter 17
01:01:59.549 : en:Chapter 18
01:05:39.978 : en:Chapter 19
01:09:43.846 : en:Chapter 20
01:13:47.381 : en:Chapter 21
01:17:30.271 : en:Chapter 22
01:22:49.006 : en:Chapter 23
01:27:07.055 : en:Chapter 24
01:32:49.355 : en:Chapter 25
01:36:02.924 : en:Chapter 26
01:42:18.007 : en:Chapter 27
01:46:08.445 : en:Chapter 28
01:50:51.687 : en:Chapter 29






Straight.Time.1978.1080p.BluRay.x264.DTS-FGT.torrent
还没有人收藏过本帖~
最新回复 (0)
返回