如资源无法下载,请在「交流」反馈!

[更 早][欧美][剧情][BD-1080P]鬼船 The.Ghost.Ship.1943.1080p.BluRay.x264.DTS-FGT 6.31GB


帖子完整标题:鬼船 The.Ghost.Ship.1943.1080p.BluRay.x264.DTS-FGT 6.31GB



◎译  名 鬼船
◎片  名 The Ghost Ship
◎年  代 1943
◎产  地 美国
◎类  别 剧情 / 悬疑 / 惊悚
◎语  言 英语,德语
◎上映日期 1943-12-24
◎豆瓣评分 6.7/10 from 74 users
◎豆瓣链接 https://movie.douban.com/subject/1485370/
◎片  长 69 分钟
◎导  演 马克·罗布森 Mark Robson
◎编  剧 唐纳德·亨德森·克拉克 Donald Henderson Clarke / 瓦尔·鲁东 Val Lewton / 莱奥·米特勒 Leo Mittler
◎主  演 理查德·迪克斯 Richard Dix
      罗素·韦德 Russell Wade
      Nolan Leary Nolan Leary
      Norman Mayes Norman Mayes
      Paul Marion Paul Marion
      Shirley O'Hara Shirley O'Hara
      Charles Regan Charles Regan
      杜威·罗宾逊 Dewey Robinson
      Robert R. Stephenson Robert R. Stephenson
      赫尔伯·维吉兰 Herb Vigran
      迈克·拉里 Mike Lally
      兰斯洛特爵士 Sir Lancelot
      史蒂夫·弗罗斯特 Steve Forrest
      劳伦斯·蒂尔尼 Lawrence Tierney
      Tom Burton Tom Burton
      Charles Lung Charles Lung
      本·巴德 Ben Bard
      埃迪·博登 Eddie Borden
      伊迪丝·巴雷特 Edith Barrett
      罗伯特·拜斯 Robert Bice
      Alec Craig Alec Craig
      博伊德·戴维斯 Boyd Davis
      乔治德诺尔芒迪 George DeNormand
      埃德蒙·格洛弗 Edmund Glover
      Skelton Knaggs Skelton Knaggs

◎标  签 美国 | 惊悚 | 1940s | 悬疑 | 美国电影 | 1943 | Mark_Robson | 黑白

◎简  介

  Tom Merriam signs on the ship Altair as third officer under Captain Stone. At first things look good, Stone sees Merriam as a younger version of himself and Merriam sees Stone as the first adult to ever treat him as a friend. But after a couple strange deaths of crew members, Merriam begins to think Stone is a psychopathic madman obsessed with authority. He tries to tell others, but no one believes him, and it only makes Stone [email?protected]www.molikan.com

Video
ID : 1
Format : AVC
Format/Info : Advanced Video Codec
Format profile : [email protected]
Format settings : CABAC / 4 Ref Frames
Format settings, CABAC : Yes
Format settings, Reference frames : 4 frames
Codec ID : V_MPEG4/ISO/AVC
Duration : 1 h 9 min
Bit rate : 11.5 Mb/s
Width : 1 480 pixels
Height : 1 080 pixels
Display aspect ratio : 1.370
Frame rate mode : Constant
Frame rate : 23.976 (24000/1001/189150) FPS
Color space : YUV
Chroma subsampling : 4:2:0
Bit depth : 8 bits
Scan type : Progressive
Bits/(Pixel*Frame) : 0.300
Stream size : 5.58 GiB (88%)
Writing library : x264 core 148 r2748 97eaef2
Encoding settings : cabac=1 / ref=4 / deblock=1:-2:-2 / analyse=0x3:0x113 / me=umh / subme=9 / psy=1 / psy_rd=1.00:0.15 / mixed_ref=1 / me_range=16 / chroma_me=1 / trellis=2 / 8x8dct=1 / cqm=0 / deadzone=21,11 / fast_pskip=1 / chroma_qp_offset=-3 / threads=24 / lookahead_threads=3 / sliced_threads=0 / nr=0 / decimate=1 / interlaced=0 / bluray_compat=0 / constrained_intra=0 / bframes=3 / b_pyramid=2 / b_adapt=1 / b_bias=0 / direct=3 / weightb=1 / open_gop=0 / weightp=2 / keyint=250 / keyint_min=25 / scenecut=40 / intra_refresh=0 / rc_lookahead=50 / rc=2pass / mbtree=1 / bitrate=11500 / ratetol=1.0 / qcomp=0.60 / qpmin=0 / qpmax=69 / qpstep=4 / cplxblur=20.0 / qblur=0.5 / vbv_maxrate=31250 / vbv_bufsize=31250 / nal_hrd=none / filler=0 / ip_ratio=1.40 / aq=1:1.00
Language : English
Default : Yes
Forced : No

Audio
ID : 2
Format : DTS
Format/Info : Digital Theater Systems
Codec ID : A_DTS
Duration : 1 h 9 min
Bit rate mode : Constant
Bit rate : 1 509 kb/s
Channel(s) : 2 channels
Channel layout : L R
Sampling rate : 48.0 kHz
Frame rate : 93.750 FPS (512 SPF)
Bit depth : 16 bits
Compression mode : Lossy
Stream size : 749 MiB (12%)
Language : English
Default : Yes
Forced : No

Text
ID : 3
Format : UTF-8
Codec ID : S_TEXT/UTF8
Codec ID/Info : UTF-8 Plain Text
Duration : 1 h 8 min
Bit rate : 59 b/s
Count of elements : 819
Stream size : 29.6 KiB (0%)
Language : English
Default : Yes
Forced : No

Menu
00:00:00.000 : en:Chapter 1
00:01:01.436 : en:Chapter 2
00:05:07.140 : en:Chapter 3
00:09:04.544 : en:Chapter 4
00:12:52.689 : en:Chapter 5
00:16:26.986 : en:Chapter 6
00:18:03.249 : en:Chapter 7
00:22:38.107 : en:Chapter 8
00:25:31.822 : en:Chapter 9
00:29:43.031 : en:Chapter 10
00:32:43.962 : en:Chapter 11
00:36:26.935 : en:Chapter 12
00:39:49.596 : en:Chapter 13
00:43:51.420 : en:Chapter 14
00:47:55.247 : en:Chapter 15
00:52:00.826 : en:Chapter 16
00:54:41.737 : en:Chapter 17
01:02:04.846 : en:Chapter 18
01:06:08.256 : en:Chapter 19
01:07:58.366 : en:Chapter 20
01:09:11.564 : en:Chapter 21






The.Ghost.Ship.1943.1080p.BluRay.x264.DTS-FGT.torrent
还没有人收藏过本帖~
最新回复 (0)
返回
发新帖
即将对游客闭站,请注册账号备用!
影音屋为您提供最新的720P、1080P、2K、4K、原盘高清电影下载,内部交流社区,欢迎体验。影音屋,更多好电影待您发现!
加入福利电报群 加入福利企鹅群 淘宝天猫漏洞单