如资源无法下载,请在「交流」反馈!

[更 早][其他][剧情][WEB-1080P]沙丘/沙丘瀚战 Dune.2021.1080p.WEBRip.DD5.1.x264-SHITBOX 10.60GB


帖子完整标题:沙丘/沙丘瀚战 Dune.2021.1080p.WEBRip.DD5.1.x264-SHITBOX 10.60GB



◎译  名 沙丘/沙丘瀚战(港)
◎片  名 Dune
◎年  代 2021
◎产  地 加拿大,匈牙利,美国
◎类  别 剧情 / 科幻 / 冒险
◎语  言 英语
◎上映日期 2021-09-03(威尼斯电影节) / 2021-09-11(多伦多电影节) / 2021-10-22(美国/中国大陆)
◎豆瓣评分 8.0/10 from 6709 users
◎豆瓣链接 https://movie.douban.com/subject/3001114/
◎片  长 156分钟
◎导  演 丹尼斯·维伦纽瓦 Denis Villeneuve
◎编  剧 丹尼斯·维伦纽瓦 Denis Villeneuve / 乔·斯派茨 Jon Spaihts / 艾瑞克·罗斯 Eric Roth / 弗兰克·赫伯特 Frank Herbert
◎主  演 蒂莫西·柴勒梅德 Timothée Chalamet
      丽贝卡·弗格森 Rebecca Ferguson
      奥斯卡·伊萨克 Oscar Isaac
      戴夫·巴蒂斯塔 Dave Bautista
      赞达亚 Zendaya
      杰森·莫玛 Jason Momoa
      乔什·布洛林 Josh Brolin
      哈维尔·巴登 Javier Bardem
      斯特兰·斯卡斯加德 Stellan Skarsg?rd
      夏洛特·兰普林 Charlotte Rampling
      大卫·达斯马齐连 David Dastmalchian
      莎伦·邓肯-布鲁斯特 Sharon Duncan-Brewster
      斯蒂芬·亨德森 Stephen Henderson
      迈克尔·纳尔多内 Michael Nardone
      张震 Chen Chang
      巴布斯·奥卢桑莫昆 Babs Olusanmokun
      Oliver Ryan Oliver Ryan
      查理·罗尔斯 Charlie Rawes
      格洛里亚·奥比安约 Gloria Obianyo
      保罗·布林 Paul Bullion
      比约恩·弗赖贝格 Bj?rn Freiberg

◎标  签 科幻 | 沙丘 | 美国 | 2021 | 奇幻 | 经典 | 冒险 | 剧情

◎简  介

  电影《沙丘》为观众呈现了一段神秘而感人至深的英雄之旅。天赋异禀的少年保罗·厄崔迪被命运指引,为了保卫自己的家族和人民,决心前往浩瀚宇宙间最危险的星球,开启一场惊心动魄的冒险。与此同时,各路势力为了抢夺这颗星球上一种能够释放人类最大潜力的珍贵资源而纷纷加入战场。最终,唯有那些能够战胜内心恐惧的人才能生存下去。

◎获奖情况

  第7届豆瓣电影年度榜单 ?(2020)
  最值得期待的外语电影(提名)
  
  第6届豆瓣电影年度榜单 ?(2019)
  最值得期待的外语电影(提名)

Video
ID : 1
Format : AVC
Format/Info : Advanced Video Codec
Format profile : [email protected]
Format settings : CABAC / 4 Ref Frames
Format settings, CABAC : Yes
Format settings, Reference frames : 4 frames
Codec ID : V_MPEG4/ISO/AVC
Duration : 2 h 28 min
Bit rate : 9 807 kb/s
Width : 1 920 pixels
Height : 776 pixels
Display aspect ratio : 2.474
Frame rate mode : Constant
Frame rate : 25.000 FPS
Color space : YUV
Chroma subsampling : 4:2:0
Bit depth : 8 bits
Scan type : Progressive
Bits/(Pixel*Frame) : 0.263
Stream size : 10.2 GiB (96%)
Writing library : x264 core 142 r2479 dd79a61
Encoding settings : cabac=1 / ref=3 / deblock=1:0:0 / analyse=0x3:0x113 / me=hex / subme=7 / psy=1 / psy_rd=1.00:0.00 / mixed_ref=1 / me_range=16 / chroma_me=1 / trellis=1 / 8x8dct=1 / cqm=0 / deadzone=21,11 / fast_pskip=1 / chroma_qp_offset=-2 / threads=24 / lookahead_threads=4 / sliced_threads=0 / nr=0 / decimate=1 / interlaced=0 / bluray_compat=0 / constrained_intra=0 / bframes=3 / b_pyramid=2 / b_adapt=1 / b_bias=0 / direct=1 / weightb=1 / open_gop=0 / weightp=2 / keyint=250 / keyint_min=25 / scenecut=40 / intra_refresh=0 / rc_lookahead=40 / rc=2pass / mbtree=1 / bitrate=9807 / ratetol=1.0 / qcomp=0.60 / qpmin=0 / qpmax=69 / qpstep=4 / cplxblur=20.0 / qblur=0.5 / vbv_maxrate=62500 / vbv_bufsize=78125 / nal_hrd=none / filler=0 / ip_ratio=1.40 / aq=1:1.00
Language : English
Default : Yes
Forced : No
Color range : Limited
Color primaries : BT.709
Transfer characteristics : BT.709
Matrix coefficients : BT.709

Audio
ID : 2
Format : AC-3
Format/Info : Audio Coding 3
Commercial name : Dolby Digital
Codec ID : A_AC3
Duration : 2 h 28 min
Bit rate mode : Constant
Bit rate : 384 kb/s
Channel(s) : 6 channels
Channel layout : L R C LFE Ls Rs
Sampling rate : 48.0 kHz
Frame rate : 31.250 FPS (1536 SPF)
Compression mode : Lossy
Stream size : 409 MiB (4%)
Language : English
Service kind : Complete Main
Default : Yes
Forced : No

Text #1
ID : 3
Format : UTF-8
Codec ID : S_TEXT/UTF8
Codec ID/Info : UTF-8 Plain Text
Duration : 1 h 49 min
Bit rate : 1 b/s
Count of elements : 43
Stream size : 1.08 KiB (0%)
Title : FORCED
Language : English
Default : No
Forced : Yes

Text #2
ID : 4
Format : UTF-8
Codec ID : S_TEXT/UTF8
Codec ID/Info : UTF-8 Plain Text
Duration : 2 h 20 min
Bit rate : 34 b/s
Count of elements : 998
Stream size : 35.8 KiB (0%)
Language : English
Default : Yes
Forced : No






Dune.2021.1080p.WEBRip.DD5.1.x264-SHITBOX.torrent
还没有人收藏过本帖~
最新回复 (0)
返回