如资源无法下载,请在「交流」反馈!

[2011][泰国][剧情][WEB-1080P]亿万少年的顶级机密 The.Billionaire.2011.THAI.1080p.NF.WEBRip.DDP5.1.x264-MoreArt 5.44GB


帖子完整标题:亿万少年的顶级机密 The.Billionaire.2011.THAI.1080p.NF.WEBRip.DDP5.1.x264-MoreArt 5.44GB



◎译  名 亿万少年的顶级机密/The Billionaire/Top Secret: Wai Roon Pan Lan/亿万少年/亿万少年的最高机密/海苔亿万富翁
◎片  名 Top Secret ??????????????
◎年  代 2011
◎产  地 泰国
◎类  别 剧情 / 喜剧
◎语  言 泰语
◎上映日期 2011-10-20(泰国)
◎豆瓣评分 7.4/10 from 7267 users
◎豆瓣链接 https://movie.douban.com/subject/6859676/
◎片  长 131分钟
◎导  演 颂裕·素玛戈南 Songyos Sugmakanan
◎编  剧 纳瓦彭·坦荣瓜塔纳利 Nawapol Thamrongrattanarit
◎主  演 帕查拉·奇拉锡瓦特 Pachara Chirathivat
      瓦岚蕾·康希文 Walanlak Kumsuwan
      颂布苏克·奈洋斯里 Somboonsuk Niyomsiri
      Pachara Thummol Pachara Thummol

◎标  签 泰国 | 励志 | 成长 | 青春 | 创业 | 喜剧 | 剧情 | 2011

◎简  介

  艾提帕特(帕查拉?奇拉锡瓦特 Pachara Chirathivat 饰)高中时期沉迷网络游戏,但是却通过倒卖游戏道具发家,小小年纪就已经展现出出色的生意头脑。但因为过久的荒废学业,毕业考试成绩未能通过,因而他只能选择就读学费昂贵的私立学校。然而屋漏偏逢连夜雨,父亲生意失败欠下巨额债务,准备举家迁往国外。但是艾提帕特坚持留下来为父亲还债。为此,他尝试了倒卖DVD游戏机,摆摊兜售糖炒栗子,但都因为经验不足而失败,创业之路荆棘满布。机缘巧合的他发现了海苔作为零食的商机,通过不断尝试,他克服了海苔保鲜的问题,出品的海苔大获好评。他没有止步在零售阶段,而是自学营销理论,通过不断改进生产质量和克服大量加工生产的难题,取得了与零售超市大亨7-eleven的合作,在两年内偿还了父亲四千万的债务,并在26岁成为了亿万富翁,创造了生意场上的奇迹。
  
  该片通过泰国海苔大亨的真人真事改编,讲述了他个人的励志故事。

◎获奖情况

  第21届泰国电影金天鹅奖 ?(2012)
  最佳导演(提名) 颂裕·素玛戈南
  最佳男配角(提名) 颂布苏克·奈洋斯里
  最佳剪辑(提名) SasikarnSuwansuthi

Video
ID : 1
Format : AVC
Format/Info : Advanced Video Codec
Format profile : [email protected]
Format settings : CABAC / 3 Ref Frames
Format settings, CABAC : Yes
Format settings, Reference frames : 3 frames
Codec ID : V_MPEG4/ISO/AVC
Duration : 2 h 4 min
Bit rate mode : Variable
Bit rate : 5 620 kb/s
Maximum bit rate : 8 430 kb/s
Width : 1 920 pixels
Height : 1 080 pixels
Display aspect ratio : 16:9
Frame rate mode : Constant
Frame rate : 25.000 FPS
Color space : YUV
Chroma subsampling : 4:2:0
Bit depth : 8 bits
Scan type : Progressive
Bits/(Pixel*Frame) : 0.108
Stream size : 4.88 GiB (90%)
Writing library : x264 core 148 r2717 0d2410d
Encoding settings : cabac=1 / ref=3 / deblock=1:0:0 / analyse=0x1:0x111 / me=umh / subme=10 / psy=1 / psy_rd=1.00:0.00 / mixed_ref=1 / me_range=24 / chroma_me=1 / trellis=2 / 8x8dct=0 / cqm=0 / deadzone=21,11 / fast_pskip=1 / chroma_qp_offset=-2 / threads=8 / lookahead_threads=1 / sliced_threads=0 / nr=0 / decimate=1 / interlaced=0 / bluray_compat=0 / stitchable=1 / constrained_intra=0 / bframes=2 / b_pyramid=0 / b_adapt=2 / b_bias=0 / direct=3 / weightb=1 / open_gop=0 / weightp=2 / keyint=250 / keyint_min=25 / scenecut=0 / intra_refresh=0 / rc_lookahead=50 / rc=2pass / mbtree=1 / bitrate=5620 / ratetol=1.0 / qcomp=0.50 / qpmin=6 / qpmax=51 / qpstep=4 / cplxblur=20.0 / qblur=0.5 / vbv_maxrate=8430 / vbv_bufsize=11240 / nal_hrd=vbr / filler=0 / ip_ratio=1.40 / aq=1:1.00
Default : Yes
Forced : No

Audio
ID : 2
Format : E-AC-3
Format/Info : Enhanced AC-3
Commercial name : Dolby Digital Plus
Codec ID : A_EAC3
Duration : 2 h 4 min
Bit rate mode : Constant
Bit rate : 640 kb/s
Channel(s) : 6 channels
Channel layout : L R C LFE Ls Rs
Sampling rate : 48.0 kHz
Frame rate : 31.250 FPS (1536 SPF)
Compression mode : Lossy
Stream size : 571 MiB (10%)
Title : Thai
Language : Thai
Service kind : Complete Main
Default : No
Forced : No

Text #1
ID : 3
Format : UTF-8
Codec ID : S_TEXT/UTF8
Codec ID/Info : UTF-8 Plain Text
Duration : 2 h 4 min
Bit rate : 42 b/s
Count of elements : 1509
Stream size : 38.5 KiB (0%)
Title : English
Language : English
Default : No
Forced : No

Text #2
ID : 4
Format : UTF-8
Codec ID : S_TEXT/UTF8
Codec ID/Info : UTF-8 Plain Text
Duration : 2 h 4 min
Bit rate : 140 b/s
Count of elements : 1911
Stream size : 128 KiB (0%)
Title : Thai
Language : Thai
Default : No
Forced : No

Text #3
ID : 5
Format : UTF-8
Codec ID : S_TEXT/UTF8
Codec ID/Info : UTF-8 Plain Text
Duration : 2 h 3 min
Bit rate : 2 b/s
Count of elements : 35
Stream size : 2.35 KiB (0%)
Title : Forced
Language : Thai
Default : No
Forced : Yes






The.Billionaire.2011.THAI.1080p.NF.WEBRip.DDP5.1.x264-MoreArt.torrent
还没有人收藏过本帖~
最新回复 (0)
返回
发新帖
即将对游客闭站,请注册账号备用!
影音屋为您提供最新的720P、1080P、2K、4K、原盘高清电影下载,内部交流社区,欢迎体验。影音屋,更多好电影待您发现!
加入福利电报群 加入福利企鹅群 淘宝天猫漏洞单