如资源无法下载,请在「交流」反馈!

[更 早][其他][剧情][BD-4K]理智与情感/理性与感性 Sense.and.Sensibility.1995.2160p.BluRay.x264.8bit.SDR.DTS-HD.MA.True


帖子完整标题:理智与情感/理性与感性 Sense.and.Sensibility.1995.2160p.BluRay.x264.8bit.SDR.DTS-HD.MA.TrueHD.7.1.Atmos-SWTYBLZ 62.34GB



◎译  名 理智与情感/理性与感性
◎片  名 Sense and Sensibility
◎年  代 1995
◎产  地 美国,英国
◎类  别 剧情 / 爱情
◎语  言 英语,法语
◎上映日期 1995-12-04(加州首映) / 1996-01-26(美国)
◎豆瓣评分 8.4/10 from 112177 users
◎豆瓣链接 https://movie.douban.com/subject/1299193/
◎片  长 136分钟
◎导  演 李安 Ang Lee
◎编  剧 艾玛·汤普森 Emma Thompson / 简·奥斯汀 Jane Austen
◎主  演 艾玛·汤普森 Emma Thompson
      凯特·温丝莱特 Kate Winslet
      休·格兰特 Hugh Grant
      艾伦·瑞克曼 Alan Rickman
      汤姆·威尔金森 Tom Wilkinson
      杰玛·琼斯 Gemma Jones
      哈丽特·瓦尔特 Harriet Walter
      埃米莉·弗朗索瓦 Emilie Fran?ois
      詹姆斯·弗雷特 James Fleet
      伊丽莎白·斯普里格斯 Elizabeth Spriggs
      罗伯特·哈迪 Robert Hardy
      伊恩·布林布尔 Ian Brimble
      伊莎贝尔·埃米亚斯 Isabelle Amyes
      格雷·怀斯 Greg Wise
      亚历山大·约翰 Alexander John
      艾美达·斯丹顿 Imelda Staunton
      伊莫金·斯塔布斯 Imogen Stubbs
      休·劳瑞 Hugh Laurie
      阿伦·米切尔 Allan Mitchell
      约瑟芬·格拉德威尔 Josephine Gradwell
      理查德·拉姆斯登 Richard Lumsden
      洛恩·马德森 Lone Madsen
      奥利弗·福德·戴维斯 Oliver Ford Davies
      埃丽诺·麦克里迪 Eleanor McCready
      林赛·多兰 Lindsay Doran

◎标  签 李安 | 英国 | 爱情 | 名著改编 | 经典 | 简·奥斯汀 | KateWinslet | 美国

◎简  介

  老庄园主去世后,可怜的母女四人被长子逐出了庄园。靠着亲戚的帮助,她们在一处小小的农舍安顿下来。势力眼的长嫂未曾想到的是,她的弟弟爱德华(休·格兰特 饰)爱上了三姐妹中的大姐埃莉诺(艾玛·汤普森 饰)。理智的埃莉诺尽管也倾心于爱德华,却顾及两人地位的悬殊而努力克制着自己的感情。
  
  与此同时,妹妹玛丽安娜(凯特·温丝莱特 饰)和英俊的军官威罗比(格雷·怀斯 饰)陷入热恋。情感外露的玛丽安娜热情奔放的释放着自己对威罗比的爱慕,甚至不顾及伤害追求者布兰登(艾伦·瑞克曼 饰)上校的感情。未曾想,威罗比为人不正,根本没有把玛丽安娜的感情真正放在心上。两个姐妹的感情相继陷入了危机。
  
  性格迥异的两姐妹谁能得到真正的爱情,如愿以偿呢?母女四人又该如何走出生活的困境呢?

◎获奖情况

  第68届奥斯卡金像奖 ?(1996)
  最佳影片(提名) 林赛·多兰
  最佳女主角(提名) 艾玛·汤普森
  最佳女配角(提名) 凯特·温丝莱特
  最佳改编剧本 艾玛·汤普森
  最佳摄影(提名) 迈克尔·库尔特
  最佳服装设计(提名) 珍妮·碧万?/?约翰·布莱特
  剧情片最佳原创配乐(提名) 帕特里克·道尔
  
  第46届柏林国际电影节 ?(1996)
  金熊奖最佳影片 李安
  
  第53届金球奖 ?(1996)
  电影类最佳剧情片
  电影类最佳导演(提名) 李安
  电影类剧情片最佳女主角(提名) 艾玛·汤普森
  电影类最佳女配角(提名) 凯特·温丝莱特
  电影类最佳编剧 艾玛·汤普森
  电影类最佳原创配乐(提名) 帕特里克·道尔
  
  第49届英国电影学院奖 ?(1996)
  电影奖最佳影片 李安?/?林赛·多兰
  电影奖最佳导演(提名) 李安
  电影奖最佳女主角 艾玛·汤普森
  电影奖最佳男配角(提名) 艾伦·瑞克曼
  电影奖最佳女配角 凯特·温丝莱特
  电影奖最佳女配角(提名) 伊丽莎白·斯普里格斯
  电影奖最佳改编剧本(提名) 艾玛·汤普森
  电影奖最佳摄影(提名) 迈克尔·库尔特?/?迈克尔·库尔特
  电影奖最佳化妆/发型(提名) 莫拉格·罗斯?/?简·阿齐巴德
  电影奖最佳服装设计(提名) 珍妮·碧万?/?约翰·布莱特
  电影奖最佳艺术指导(提名) 露西安娜·阿瑞吉
  电影奖最佳原创音乐(提名) 帕特里克·道尔

Video
ID : 1
Format : AVC
Format/Info : Advanced Video Codec
Format profile : [email protected]
Format settings : CABAC / 5 Ref Frames
Format settings, CABAC : Yes
Format settings, Reference frames : 5 frames
Codec ID : V_MPEG4/ISO/AVC
Duration : 2 h 16 min
Bit rate : 56.1 Mb/s
Width : 3 840 pixels
Height : 2 076 pixels
Display aspect ratio : 1.85:1
Frame rate mode : Constant
Frame rate : 23.976 (24000/1001/189150) FPS
Color space : YUV
Chroma subsampling : 4:2:0
Bit depth : 8 bits
Scan type : Progressive
Bits/(Pixel*Frame) : 0.293
Stream size : 53.3 GiB (86%)
Writing library : x264 core 157 r2935 545de2f
Encoding settings : cabac=1 / ref=5 / deblock=1:-1:-1 / analyse=0x3:0x113 / me=umh / subme=10 / psy=1 / psy_rd=1.00:0.15 / mixed_ref=1 / me_range=48 / chroma_me=1 / trellis=2 / 8x8dct=1 / cqm=0 / deadzone=21,11 / fast_pskip=1 / chroma_qp_offset=-3 / threads=48 / lookahead_threads=4 / sliced_threads=0 / nr=0 / decimate=0 / interlaced=0 / bluray_compat=0 / constrained_intra=0 / bframes=3 / b_pyramid=2 / b_adapt=2 / b_bias=0 / direct=3 / weightb=1 / open_gop=0 / weightp=2 / keyint=250 / keyint_min=23 / scenecut=40 / intra_refresh=0 / rc_lookahead=50 / rc=crf / mbtree=1 / crf=23.0 / qcomp=0.60 / qpmin=0 / qpmax=69 / qpstep=4 / ip_ratio=1.40 / aq=1:1.00
Default : Yes
Forced : No

Audio #1
ID : 2
ID in the original source medium : 4352 (0x1100)
Format : MLP FBA 16-ch
Format/Info : Meridian Lossless Packing FBA with 16-channel presentation
Commercial name : Dolby TrueHD with Dolby Atmos
Codec ID : A_TRUEHD
Duration : 2 h 16 min
Bit rate mode : Variable
Bit rate : 3 770 kb/s
Maximum bit rate : 6 108 kb/s
Channel(s) : 8 channels
Channel layout : L R C LFE Ls Rs Lb Rb
Sampling rate : 48.0 kHz
Frame rate : 1 200.000 FPS (40 SPF)
Bit depth : 24 bits
Compression mode : Lossless
Stream size : 3.59 GiB (6%)
Title : TrueHD 7.1 Atmos
Language : English
Default : Yes
Forced : No
Original source medium : Blu-ray
Number of dynamic objects : 11
Bed channel count : 1 channel
Bed channel configuration : LFE

Audio #2
ID : 3
Format : DTS XLL
Format/Info : Digital Theater Systems
Commercial name : DTS-HD Master Audio
Codec ID : A_DTS
Duration : 2 h 16 min
Bit rate mode : Variable
Bit rate : 4 378 kb/s
Channel(s) : 8 channels
Channel layout : C L R LFE Lb Rb Lss Rss
Sampling rate : 48.0 kHz
Frame rate : 93.750 FPS (512 SPF)
Bit depth : 24 bits
Compression mode : Lossless
Stream size : 4.17 GiB (7%)
Title : DTS-HD MA 7.1
Language : English
Default : No
Forced : No

Audio #3
ID : 4
Format : AC-3
Format/Info : Audio Coding 3
Commercial name : Dolby Digital
Codec ID : A_AC3
Duration : 2 h 16 min
Bit rate mode : Constant
Bit rate : 640 kb/s
Channel(s) : 6 channels
Channel layout : L R C LFE Ls Rs
Sampling rate : 48.0 kHz
Frame rate : 31.250 FPS (1536 SPF)
Compression mode : Lossy
Stream size : 624 MiB (1%)
Title : DD 5.1
Language : English
Service kind : Complete Main
Default : No
Forced : No

Text #1
ID : 5
Format : UTF-8
Codec ID : S_TEXT/UTF8
Codec ID/Info : UTF-8 Plain Text
Duration : 2 h 14 min
Bit rate : 66 b/s
Count of elements : 1786
Stream size : 65.4 KiB (0%)
Title : SRT
Language : English
Default : No
Forced : No

Text #2
ID : 6
ID in the original source medium : 4768 (0x12A0)
Format : PGS
Muxing mode : zlib
Codec ID : S_HDMV/PGS
Codec ID/Info : Picture based subtitle format used on BDs/HD-DVDs
Duration : 2 h 15 min
Bit rate : 42.7 kb/s
Count of elements : 3848
Stream size : 41.4 MiB (0%)
Title : US SDH
Language : English
Default : No
Forced : No
Original source medium : Blu-ray

Text #3
ID : 7
ID in the original source medium : 4769 (0x12A1)
Format : PGS
Muxing mode : zlib
Codec ID : S_HDMV/PGS
Codec ID/Info : Picture based subtitle format used on BDs/HD-DVDs
Duration : 2 h 10 min
Bit rate : 33.3 kb/s
Count of elements : 2934
Stream size : 31.1 MiB (0%)
Title : US
Language : English
Default : No
Forced : No
Original source medium : Blu-ray

Text #4
ID : 8
ID in the original source medium : 4770 (0x12A2)
Format : PGS
Muxing mode : zlib
Codec ID : S_HDMV/PGS
Codec ID/Info : Picture based subtitle format used on BDs/HD-DVDs
Duration : 2 h 15 min
Bit rate : 42.7 kb/s
Count of elements : 3846
Stream size : 41.4 MiB (0%)
Title : UK SDH
Language : English
Default : No
Forced : No
Original source medium : Blu-ray

Text #5
ID : 9
ID in the original source medium : 4771 (0x12A3)
Format : PGS
Muxing mode : zlib
Codec ID : S_HDMV/PGS
Codec ID/Info : Picture based subtitle format used on BDs/HD-DVDs
Duration : 2 h 10 min
Bit rate : 33.3 kb/s
Count of elements : 2932
Stream size : 31.1 MiB (0%)
Title : UK
Language : English
Default : No
Forced : No
Original source medium : Blu-ray

Text #6
ID : 10
ID in the original source medium : 4772 (0x12A4)
Format : PGS
Muxing mode : zlib
Codec ID : S_HDMV/PGS
Codec ID/Info : Picture based subtitle format used on BDs/HD-DVDs
Duration : 2 h 10 min
Bit rate : 15.2 kb/s
Count of elements : 2155
Stream size : 14.2 MiB (0%)
Language : Arabic
Default : No
Forced : No
Original source medium : Blu-ray

Text #7
ID : 11
ID in the original source medium : 4773 (0x12A5)
Format : PGS
Muxing mode : zlib
Codec ID : S_HDMV/PGS
Codec ID/Info : Picture based subtitle format used on BDs/HD-DVDs
Duration : 2 h 10 min
Bit rate : 31.3 kb/s
Count of elements : 2940
Stream size : 29.3 MiB (0%)
Language : Bulgarian
Default : No
Forced : No
Original source medium : Blu-ray

Text #8
ID : 12
ID in the original source medium : 4774 (0x12A6)
Format : PGS
Muxing mode : zlib
Codec ID : S_HDMV/PGS
Codec ID/Info : Picture based subtitle format used on BDs/HD-DVDs
Duration : 2 h 10 min
Bit rate : 23.6 kb/s
Count of elements : 2207
Stream size : 22.1 MiB (0%)
Language : Chinese
Default : No
Forced : No
Original source medium : Blu-ray

Text #9
ID : 13
ID in the original source medium : 4775 (0x12A7)
Format : PGS
Muxing mode : zlib
Codec ID : S_HDMV/PGS
Codec ID/Info : Picture based subtitle format used on BDs/HD-DVDs
Duration : 2 h 15 min
Bit rate : 29.0 kb/s
Count of elements : 2309
Stream size : 28.0 MiB (0%)
Language : Croatian
Default : No
Forced : No
Original source medium : Blu-ray

Text #10
ID : 14
ID in the original source medium : 4776 (0x12A8)
Format : PGS
Muxing mode : zlib
Codec ID : S_HDMV/PGS
Codec ID/Info : Picture based subtitle format used on BDs/HD-DVDs
Duration : 2 h 10 min
Bit rate : 27.7 kb/s
Count of elements : 2108
Stream size : 25.9 MiB (0%)
Language : Czech
Default : No
Forced : No
Original source medium : Blu-ray

Text #11
ID : 15
ID in the original source medium : 4777 (0x12A9)
Format : PGS
Muxing mode : zlib
Codec ID : S_HDMV/PGS
Codec ID/Info : Picture based subtitle format used on BDs/HD-DVDs
Duration : 2 h 15 min
Bit rate : 28.2 kb/s
Count of elements : 2088
Stream size : 27.2 MiB (0%)
Language : Danish
Default : No
Forced : No
Original source medium : Blu-ray

Text #12
ID : 16
ID in the original source medium : 4778 (0x12AA)
Format : PGS
Muxing mode : zlib
Codec ID : S_HDMV/PGS
Codec ID/Info : Picture based subtitle format used on BDs/HD-DVDs
Duration : 2 h 10 min
Bit rate : 29.2 kb/s
Count of elements : 2108
Stream size : 27.3 MiB (0%)
Language : Dutch
Default : No
Forced : No
Original source medium : Blu-ray

Text #13
ID : 17
ID in the original source medium : 4779 (0x12AB)
Format : PGS
Muxing mode : zlib
Codec ID : S_HDMV/PGS
Codec ID/Info : Picture based subtitle format used on BDs/HD-DVDs
Duration : 2 h 10 min
Bit rate : 30.1 kb/s
Count of elements : 2130
Stream size : 28.1 MiB (0%)
Language : Finnish
Default : No
Forced : No
Original source medium : Blu-ray

Text #14
ID : 18
ID in the original source medium : 4780 (0x12AC)
Format : PGS
Muxing mode : zlib
Codec ID : S_HDMV/PGS
Codec ID/Info : Picture based subtitle format used on BDs/HD-DVDs
Duration : 2 h 15 min
Bit rate : 29.7 kb/s
Count of elements : 2612
Stream size : 28.7 MiB (0%)
Language : French
Default : No
Forced : No
Original source medium : Blu-ray

Text #15
ID : 19
ID in the original source medium : 4781 (0x12AD)
Format : PGS
Muxing mode : zlib
Codec ID : S_HDMV/PGS
Codec ID/Info : Picture based subtitle format used on BDs/HD-DVDs
Duration : 2 h 10 min
Bit rate : 32.4 kb/s
Count of elements : 2438
Stream size : 30.2 MiB (0%)
Language : German
Default : No
Forced : No
Original source medium : Blu-ray

Text #16
ID : 20
ID in the original source medium : 4781 (0x12AD)
Format : PGS
Muxing mode : zlib
Codec ID : S_HDMV/PGS
Codec ID/Info : Picture based subtitle format used on BDs/HD-DVDs
Duration : 36 min 32 s
Bit rate : 87 b/s
Count of elements : 4
Stream size : 23.3 KiB (0%)
Language : German
Default : No
Forced : No
Original source medium : Blu-ray

Text #17
ID : 21
ID in the original source medium : 4782 (0x12AE)
Format : PGS
Muxing mode : zlib
Codec ID : S_HDMV/PGS
Codec ID/Info : Picture based subtitle format used on BDs/HD-DVDs
Duration : 2 h 12 min
Bit rate : 30.4 kb/s
Count of elements : 2158
Stream size : 28.8 MiB (0%)
Language : Greek
Default : No
Forced : No
Original source medium : Blu-ray

Text #18
ID : 22
ID in the original source medium : 4783 (0x12AF)
Format : PGS
Muxing mode : zlib
Codec ID : S_HDMV/PGS
Codec ID/Info : Picture based subtitle format used on BDs/HD-DVDs
Duration : 2 h 10 min
Bit rate : 20.7 kb/s
Count of elements : 2082
Stream size : 19.3 MiB (0%)
Language : Hebrew
Default : No
Forced : No
Original source medium : Blu-ray

Text #19
ID : 23
ID in the original source medium : 4784 (0x12B0)
Format : PGS
Muxing mode : zlib
Codec ID : S_HDMV/PGS
Codec ID/Info : Picture based subtitle format used on BDs/HD-DVDs
Duration : 2 h 15 min
Bit rate : 21.1 kb/s
Count of elements : 2124
Stream size : 20.4 MiB (0%)
Language : Hindi
Default : No
Forced : No
Original source medium : Blu-ray

Text #20
ID : 24
ID in the original source medium : 4785 (0x12B1)
Format : PGS
Muxing mode : zlib
Codec ID : S_HDMV/PGS
Codec ID/Info : Picture based subtitle format used on BDs/HD-DVDs
Duration : 2 h 10 min
Bit rate : 28.0 kb/s
Count of elements : 2158
Stream size : 26.2 MiB (0%)
Language : Hungarian
Default : No
Forced : No
Original source medium : Blu-ray

Text #21
ID : 25
ID in the original source medium : 4786 (0x12B2)
Format : PGS
Muxing mode : zlib
Codec ID : S_HDMV/PGS
Codec ID/Info : Picture based subtitle format used on BDs/HD-DVDs
Duration : 2 h 10 min
Bit rate : 29.9 kb/s
Count of elements : 2174
Stream size : 27.9 MiB (0%)
Language : Italian
Default : No
Forced : No
Original source medium : Blu-ray

Text #22
ID : 26
ID in the original source medium : 4786 (0x12B2)
Format : PGS
Muxing mode : zlib
Codec ID : S_HDMV/PGS
Codec ID/Info : Picture based subtitle format used on BDs/HD-DVDs
Duration : 1 s 876 ms
Bit rate : 23.8 kb/s
Count of elements : 2
Stream size : 5.45 KiB (0%)
Language : Italian
Default : No
Forced : No
Original source medium : Blu-ray

Text #23
ID : 27
ID in the original source medium : 4787 (0x12B3)
Format : PGS
Muxing mode : zlib
Codec ID : S_HDMV/PGS
Codec ID/Info : Picture based subtitle format used on BDs/HD-DVDs
Duration : 2 h 10 min
Bit rate : 24.5 kb/s
Count of elements : 2942
Stream size : 22.9 MiB (0%)
Language : Korean
Default : No
Forced : No
Original source medium : Blu-ray

Text #24
ID : 28
ID in the original source medium : 4788 (0x12B4)
Format : PGS
Muxing mode : zlib
Codec ID : S_HDMV/PGS
Codec ID/Info : Picture based subtitle format used on BDs/HD-DVDs
Duration : 2 h 15 min
Bit rate : 27.4 kb/s
Count of elements : 2086
Stream size : 26.5 MiB (0%)
Language : Norwegian
Default : No
Forced : No
Original source medium : Blu-ray

Text #25
ID : 29
ID in the original source medium : 4789 (0x12B5)
Format : PGS
Muxing mode : zlib
Codec ID : S_HDMV/PGS
Codec ID/Info : Picture based subtitle format used on BDs/HD-DVDs
Duration : 2 h 10 min
Bit rate : 30.7 kb/s
Count of elements : 2366
Stream size : 28.7 MiB (0%)
Language : Polish
Default : No
Forced : No
Original source medium : Blu-ray

Text #26
ID : 30
ID in the original source medium : 4790 (0x12B6)
Format : PGS
Muxing mode : zlib
Codec ID : S_HDMV/PGS
Codec ID/Info : Picture based subtitle format used on BDs/HD-DVDs
Duration : 2 h 10 min
Bit rate : 29.1 kb/s
Count of elements : 2144
Stream size : 27.2 MiB (0%)
Language : Portuguese
Default : No
Forced : No
Original source medium : Blu-ray

Text #27
ID : 31
ID in the original source medium : 4791 (0x12B7)
Format : PGS
Muxing mode : zlib
Codec ID : S_HDMV/PGS
Codec ID/Info : Picture based subtitle format used on BDs/HD-DVDs
Duration : 2 h 15 min
Bit rate : 27.0 kb/s
Count of elements : 2090
Stream size : 26.1 MiB (0%)
Language : Romanian
Default : No
Forced : No
Original source medium : Blu-ray

Text #28
ID : 32
ID in the original source medium : 4792 (0x12B8)
Format : PGS
Muxing mode : zlib
Codec ID : S_HDMV/PGS
Codec ID/Info : Picture based subtitle format used on BDs/HD-DVDs
Duration : 2 h 15 min
Bit rate : 29.1 kb/s
Count of elements : 2110
Stream size : 28.1 MiB (0%)
Language : Russian
Default : No
Forced : No
Original source medium : Blu-ray

Text #29
ID : 33
ID in the original source medium : 4793 (0x12B9)
Format : PGS
Muxing mode : zlib
Codec ID : S_HDMV/PGS
Codec ID/Info : Picture based subtitle format used on BDs/HD-DVDs
Duration : 2 h 10 min
Bit rate : 28.8 kb/s
Count of elements : 2444
Stream size : 26.9 MiB (0%)
Language : Slovenian
Default : No
Forced : No
Original source medium : Blu-ray

Text #30
ID : 34
ID in the original source medium : 4794 (0x12BA)
Format : PGS
Muxing mode : zlib
Codec ID : S_HDMV/PGS
Codec ID/Info : Picture based subtitle format used on BDs/HD-DVDs
Duration : 2 h 10 min
Bit rate : 28.6 kb/s
Count of elements : 2108
Stream size : 26.8 MiB (0%)
Language : Spanish
Default : No
Forced : No
Original source medium : Blu-ray

Text #31
ID : 35
ID in the original source medium : 4795 (0x12BB)
Format : PGS
Muxing mode : zlib
Codec ID : S_HDMV/PGS
Codec ID/Info : Picture based subtitle format used on BDs/HD-DVDs
Duration : 2 h 12 min
Bit rate : 34.5 kb/s
Count of elements : 3460
Stream size : 32.6 MiB (0%)
Language : Spanish
Default : No
Forced : No
Original source medium : Blu-ray

Text #32
ID : 36
ID in the original source medium : 4796 (0x12BC)
Format : PGS
Muxing mode : zlib
Codec ID : S_HDMV/PGS
Codec ID/Info : Picture based subtitle format used on BDs/HD-DVDs
Duration : 2 h 10 min
Bit rate : 29.5 kb/s
Count of elements : 2123
Stream size : 27.6 MiB (0%)
Language : Swedish
Default : No
Forced : No
Original source medium : Blu-ray

Text #33
ID : 37
ID in the original source medium : 4797 (0x12BD)
Format : PGS
Muxing mode : zlib
Codec ID : S_HDMV/PGS
Codec ID/Info : Picture based subtitle format used on BDs/HD-DVDs
Duration : 2 h 10 min
Bit rate : 27.4 kb/s
Count of elements : 2177
Stream size : 25.6 MiB (0%)
Language : Thai
Default : No
Forced : No
Original source medium : Blu-ray

Menu
00:00:00.000 : Chapter 01
00:08:46.400 : Chapter 02
00:15:59.458 : Chapter 03
00:23:24.778 : Chapter 04
00:32:14.891 : Chapter 05
00:41:07.715 : Chapter 06
00:51:08.023 : Chapter 07
00:55:04.718 : Chapter 08
01:04:36.789 : Chapter 09
01:16:48.061 : Chapter 10
01:24:15.425 : Chapter 11
01:33:49.498 : Chapter 12
01:39:50.484 : Chapter 13
01:48:25.707 : Chapter 14
01:57:53.691 : Chapter 15
02:06:05.808 : Chapter 16






Sense.and.Sensibility.1995.2160p.BluRay.x264.8bit.SDR.DTS-HD.MA.TrueHD.7.1.Atmos-SWTYBLZ.torrent
还没有人收藏过本帖~
最新回复 (0)
返回