如资源无法下载,请在「交流」反馈!

[更 早][欧美][动作][BD-720P]PT-218的叛军 The.Rebels.of.PT-218.2021.720p.BluRay.x264-WoAT 3.17GB


帖子完整标题:PT-218的叛军 The.Rebels.of.PT-218.2021.720p.BluRay.x264-WoAT 3.17GB



◎译  名 PT-218的叛军
◎片  名 The Rebels of PT-218
◎年  代 2021
◎产  地 美国
◎类  别 动作 / 战争 / 冒险
◎语  言 英语,意大利语,德语
◎上映日期 2021-07-16(美国)
◎豆瓣评分 3.6/10 from 171 users
◎豆瓣链接 https://movie.douban.com/subject/35277263/
◎片  长 105分钟
◎导  演 尼克·里昂 Nick Lyon
◎编  剧 乔治·克里默 George Climer
◎主  演 林肯·霍普 Lincoln Hoppe
      吉奥夫·米德 Geoff Meed
      德里克·耶茨 Derek Yates

◎标  签 二战 | 战争 | 美国 | 神剧 | 2021 | 剧情 | 动作 | 美国电影

◎简  介

  Pt-218: 第二次世界大战的反叛者,不仅讲述了一个真实的故事,而且告诉了我们1942年发生的事情的细节。在二战的鼎盛时期,大西洋变成了一个致命的战场,美国潜艇与德国军队不断的轰炸作战。

Video
ID : 1
Format : AVC
Format/Info : Advanced Video Codec
Format profile : [email protected]
Format settings : CABAC / 8 Ref Frames
Format settings, CABAC : Yes
Format settings, Reference frames : 8 frames
Codec ID : V_MPEG4/ISO/AVC
Duration : 1 h 28 min
Bit rate : 4 480 kb/s
Width : 1 280 pixels
Height : 536 pixels
Display aspect ratio : 2.40:1
Frame rate mode : Constant
Frame rate : 23.976 (24000/1001/189150) FPS
Color space : YUV
Chroma subsampling : 4:2:0
Bit depth : 8 bits
Scan type : Progressive
Bits/(Pixel*Frame) : 0.272
Stream size : 2.76 GiB (87%)
Writing library : x264 core 164 r3065 ae03d92
Encoding settings : cabac=1 / ref=8 / deblock=1:-3:-3 / analyse=0x3:0x133 / me=umh / subme=9 / psy=1 / psy_rd=1.00:0.00 / mixed_ref=1 / me_range=32 / chroma_me=1 / trellis=2 / 8x8dct=1 / cqm=0 / deadzone=21,11 / fast_pskip=0 / chroma_qp_offset=-2 / threads=16 / lookahead_threads=2 / sliced_threads=0 / nr=0 / decimate=0 / interlaced=0 / bluray_compat=0 / constrained_intra=0 / bframes=8 / b_pyramid=2 / b_adapt=2 / b_bias=0 / direct=3 / weightb=1 / open_gop=0 / weightp=2 / keyint=250 / keyint_min=23 / scenecut=40 / intra_refresh=0 / rc_lookahead=60 / rc=crf / mbtree=1 / crf=15.0 / qcomp=0.60 / qpmin=0 / qpmax=69 / qpstep=4 / ip_ratio=1.40 / aq=3:0.88
Default : Yes
Forced : No
Color range : Limited
Matrix coefficients : BT.709

Audio
ID : 2
Format : AC-3
Format/Info : Audio Coding 3
Commercial name : Dolby Digital
Codec ID : A_AC3
Duration : 1 h 28 min
Bit rate mode : Constant
Bit rate : 640 kb/s
Channel(s) : 6 channels
Channel layout : L R C LFE Ls Rs
Sampling rate : 48.0 kHz
Frame rate : 31.250 FPS (1536 SPF)
Compression mode : Lossy
Stream size : 404 MiB (12%)
Title : English
Language : English
Service kind : Complete Main
Default : No
Forced : No

Text
ID : 3
Format : PGS
Muxing mode : zlib
Codec ID : S_HDMV/PGS
Codec ID/Info : Picture based subtitle format used on BDs/HD-DVDs
Duration : 1 h 24 min
Bit rate : 47.7 kb/s
Count of elements : 2229
Stream size : 28.7 MiB (1%)
Title : English
Language : English
Default : No
Forced : No

Menu
00:00:00.000 : Chapter 01
00:06:53.955 : Chapter 02
00:14:31.537 : Chapter 03
00:21:10.227 : Chapter 04
00:28:26.204 : Chapter 05
00:36:20.303 : Chapter 06
00:45:28.684 : Chapter 07
00:52:30.773 : Chapter 08
00:56:43.650 : Chapter 09
01:04:10.764 : Chapter 10
01:10:01.823 : Chapter 11
01:17:45.661 : Chapter 12






The.Rebels.of.PT-218.2021.720p.BluRay.x264-WoAT.torrent
还没有人收藏过本帖~
最新回复 (0)
返回